Роль (Елена Райская) [1993, драма, мелодрама, SATRip]

Reply to topic
DL-List and Torrent activity
Size:  1.04 GB   |    Registered:  4 months 13 days   |    Completed:  0 times

Seeder not seen: Never

 
   
 
 
Author Message

star21 ®

Gender: Female

Longevity: 4 years 3 months

Posts: 551946

Location: Екатеринбург

Post 11-Oct-2019 05:05

[Quote]

Роль Жанр: драма, мелодрама
Год выпуска: 1993
Продолжительность: 01:15:52Режиссёр: Елена РайскаяВ ролях: Валерий Гаркалин, Евгения Симонова, Нина Дробышева, Андрей Калашников, Владислав Демченко, Вера Воронкова, Нелли Неведина, Татьяна Лютаева, Олег Хабалов, Сергей Бадичкин, Галина Кмит, Яна Райская, Леван Мсхиладзе, Лариса Исаева.Описание: Актер по призванию и движущийся манекен по профессии, простившись с женой, отъезжающей в Америку, и сам решает покинуть эту страну, где для того, чтобы как-то сохранить свое Я, он уже давно и для всех стал "иностранцем". Но авантюра, в которую герой вовлекается перед отъездом, возвращает ему способность к родной речи и дает шанс на любовь...Доп. информация: Выпущено: Россия, Кинокомпания "Баттерфляйз", ММЦ ДЭВИД-ПЭК, Компания ЭВРА ИНТЕРНЕЙШНЛСпециальный диплом жюри МКФ «Love is folly» (Варна-94); Приз за первую режиссерскую работу МКФ в Каунасе-94.Сэмпл: https://yadi.sk/i/zNkvQtmadywaywКачество видео: SATRip
Формат видео: AVIВидео: Xvid 640x480 25fps 1817kbps
Аудио: MP3 44100Hz stereo 128kbps

MediaInfo

General
Complete name : C:\Users\morozoff\Desktop\Роль_1993.avi
Format : AVI
Format/Info : Audio Video Interleave
Format profile : OpenDML
File size : 1.04 GiB
Duration : 1 h 15 min
Overall bit rate : 1 962 kb/s
Writing application : Lavf56.15.102Video
ID : 0
Format : xvid
Codec ID : xvid
Duration : 1 h 15 min
Bit rate : 1 818 kb/s
Width : 640 pixels
Height : 480 pixels
Display aspect ratio : 4:3
Frame rate : 25.000 FPS
Scan type : Progressive
Bits/(Pixel*Frame) : 0.237
Stream size : 987 MiB (93%)Audio
ID : 1
Format : MPEG Audio
Format version : Version 1
Format profile : Layer 3
Format settings : Joint stereo / MS Stereo
Codec ID : 55
Codec ID/Hint : MP3
Duration : 1 h 15 min
Bit rate mode : Constant
Bit rate : 128 kb/s
Channel(s) : 2 channels
Sampling rate : 44.1 kHz
Compression mode : Lossy
Stream size : 69.5 MiB (7%)
Alignment : Aligned on interleaves
Interleave, duration : 26 ms (0.65 video frame)

Скриншот c названием фильма

Скриншоты

To download the content you need:
1. Download and install torrent client [for Windows] or for mobile system
2. Click on [Download]
Attention.
If the test YOU are NOT a ROBOT - does not work, then You are using an outdated browser.
Install the current browser and click on [Download]
Security: torrent client is allowed by Kaspersky.

[en.asmlocator.ru].t670117.torrent 
Torrent: Registered [ 2019-10-11 05:05 ] · A7DC66FA79197CDAAEFA6737EFDD80B36E40B619

Download .torrent

Download

11 KB

Status: checked
Completed: 0 times
Size: 1.04 GB
terms.php
[Profile] [PM]
Display posts:    
Reply to topic

Current time is: 24-Feb 23:42

All times are UTC ± 0



You cannot post new topics in this forum
You cannot reply to topics in this forum
You cannot edit your posts in this forum
You cannot delete your posts in this forum
You cannot vote in polls in this forum
You cannot attach files in this forum
You can download files in this forum
Верим фактам, а не вранью Путина! Факт, что Правительство ведёт Россию к истреблению.
Так как численность населения падает, даже не смотря на приток эмигрантов!
Русская нация вымирает и вырождается, смешиваясь с эмигрантами!
Факт, что военных и граждан предприятий заставляют голосовать за партию Единая Россия и Путина
ПОД СТРАХОМ УВОЛЬНЕНИЯ!
Нам не нужно Правительство, блокирующее личную жизнь, интернет, нарушающее сохранность данных.
Все эти действия финансируются за счёт народа!