Дом на камне (Александр Хряков) [1994, драма, VHSRip]

Reply to topic
DL-List and Torrent activity
Size:  1.79 GB   |    Registered:  4 months 13 days   |    Completed:  0 times

Seeder not seen: Never

 
   
 
 
Author Message

star21 ®

Gender: Female

Longevity: 4 years 3 months

Posts: 551946

Location: Екатеринбург

Post 11-Oct-2019 05:05

[Quote]

Дом на камне Жанр: драма
Год выпуска: 1994
Продолжительность: 02:09:43Режиссёр: Александр ХряковВ ролях: Юозас Будрайтис, Ирина Купченко, Иван Лапиков, Борис Романов (I), Светлана Светличная, Евгений Редько, Ариадна Шенгелая, Татьяна Ташкова, Анна Дубровская, Валерий БариновОписание: Фильм снят по мотивам рассказа Рэя Брэдбери «Отпрыск Макгиллахи», герой которого — ирландский писатель Смит — спустя 15 лет возвращается в Дублин, где в 1953 году работал над пьесой. Загадочная история с возвращением ведёт читателя в сферу мистического, Смиту кажется, что он встречает тени собственного прошлого. В фильме сюжет рассказа перенесен в наши дни. Русский писатель (его играет Юозас Будрайтис), покинувший отечество пятнадцать лет назад, приезжает со своей женой на три дня в Москву.Доп. информация: Выпущено: Россия, Valir-FilmСэмпл: https://yadi.sk/i/4irz7OALTEaa1QКачество видео: VHSRip
Формат видео: AVIВидео: Xvid 720x528 25fps 1775kbps
Аудио: Dolby AC3 48000Hz stereo 192kbps

MediaInfo

General
Complete name : C:\Users\morozoff\Desktop\Дом на камне.avi
Format : AVI
Format/Info : Audio Video Interleave
File size : 1.79 GiB
Duration : 2 h 9 min
Overall bit rate : 1 973 kb/s
Writing application : MEncoder SVN-r22963
Writing library : MPlayerVideo
ID : 0
Format : MPEG-4 Visual
Format profile : Simple@L1
Format settings, BVOP : No
Format settings, QPel : No
Format settings, GMC : No warppoints
Format settings, Matrix : Default (H.263)
Codec ID : XVID
Codec ID/Hint : XviD
Duration : 2 h 9 min
Bit rate : 1 775 kb/s
Width : 720 pixels
Height : 528 pixels
Display aspect ratio : 4:3
Frame rate : 25.000 FPS
Color space : YUV
Chroma subsampling : 4:2:0
Bit depth : 8 bits
Scan type : Progressive
Compression mode : Lossy
Bits/(Pixel*Frame) : 0.187
Stream size : 1.61 GiB (90%)
Writing library : Lavc51.40.2Audio
ID : 1
Format : AC-3
Format/Info : Audio Coding 3
Commercial name : Dolby Digital
Codec ID : 2000
Duration : 2 h 9 min
Bit rate mode : Constant
Bit rate : 192 kb/s
Channel(s) : 2 channels
Channel layout : L R
Sampling rate : 48.0 kHz
Frame rate : 31.250 FPS (1536 SPF)
Bit depth : 16 bits
Compression mode : Lossy
Delay relative to video : 8 ms
Stream size : 178 MiB (10%)
Alignment : Split across interleaves
Interleave, duration : 500 ms (12.50 video frames)
Interleave, preload duration : 1000 ms
Service kind : Complete Main

Скриншот c названием фильма

Скриншоты

To download the content you need:
1. Download and install torrent client [for Windows] or for mobile system
2. Click on [Download]
Attention.
If the test YOU are NOT a ROBOT - does not work, then You are using an outdated browser.
Install the current browser and click on [Download]
Security: torrent client is allowed by Kaspersky.

[en.asmlocator.ru].t670113.torrent 
Torrent: Registered [ 2019-10-11 05:05 ] · 35DCB628D021DF289DF11C4488705049DCA33ED4

Download .torrent

Download

18 KB

Status: checked
Completed: 0 times
Size: 1.79 GB
terms.php
[Profile] [PM]
Display posts:    
Reply to topic

Current time is: 24-Feb 08:07

All times are UTC ± 0



You cannot post new topics in this forum
You cannot reply to topics in this forum
You cannot edit your posts in this forum
You cannot delete your posts in this forum
You cannot vote in polls in this forum
You cannot attach files in this forum
You can download files in this forum
Верим фактам, а не вранью Путина! Факт, что Правительство ведёт Россию к истреблению.
Так как численность населения падает, даже не смотря на приток эмигрантов!
Русская нация вымирает и вырождается, смешиваясь с эмигрантами!
Факт, что военных и граждан предприятий заставляют голосовать за партию Единая Россия и Путина
ПОД СТРАХОМ УВОЛЬНЕНИЯ!
Нам не нужно Правительство, блокирующее личную жизнь, интернет, нарушающее сохранность данных.
Все эти действия финансируются за счёт народа!