Трудности выживания (Евгений Торрес) [2019, комедия, мелодрама, WEB-DLRip]

Reply to topic
DL-List and Torrent activity
Size:  1.46 GB   |    Registered:  4 months 13 days   |    Completed:  2 times

Seeder not seen: 39 minutes

 
   
 
 
Author Message

star21 ®

Gender: Female

Longevity: 4 years 3 months

Posts: 551946

Location: Екатеринбург

Post 11-Oct-2019 05:05

[Quote]

Трудности выживания Жанр: комедия, мелодрама
Год выпуска: 2019
Продолжительность: 01:29:50Режиссёр: Евгений ТорресВ ролях: Василий Бриченко, Елизавета Кононова, Ян Цапник, Артем Маркарьян, Анна Ардова, Александр Самойленко, Николай Фоменко, Надежда Сысоева, Александр Носков, Максим Важов
Описание: Начинающая журналистка Нина в погоне за сенсацией отправляется на необитаемый остров, где, по слухам, живет миллионер-затворник. Баркас со съёмочной группой попадает в жуткий шторм, и Нина приходит в сознание уже на пустынном берегу. К счастью, это именно тот остров, который ей был нужен, а значит, она оказалась в надежных руках молодого и симпатичного героя своего репортажа. Но только Нина еще не подозревает, что на самом деле это ее коллега, местный журналист, которому просто нужна была горячая тема, и он её выдумал. А ещё он ничего не смыслит в выживании…Кинопоиск
SampleКачество видео: WEB-DLRip
Формат видео: AVIВидео: 720x304 (2.37:1), 24.000 fps, XviD build 73 ~1935 kbps avg, 0.37 bit/pixel
Аудио: 48 kHz, AC3 Dolby Digital, 3/2 (L,C,R,l,r) + LFE ch, ~384 kbps

MediaInfo

General
Complete name : D:\Trudnosti.vyzhivaniya.2019.WEB-DLRip.avi
Format : AVI
Format/Info : Audio Video Interleave
File size : 1.46 GiB
Duration : 1 h 29 min
Overall bit rate : 2 329 kb/s
Writing application : VirtualDubMod 1.5.10.3 | www.virtualdub-fr.org || (build 2550/release)
Writing library : VirtualDubMod build 2550/releaseVideo
ID : 0
Format : MPEG-4 Visual
Format profile : Advanced Simple@L5
Format settings : BVOP1
Format settings, BVOP : 1
Format settings, QPel : No
Format settings, GMC : No warppoints
Format settings, Matrix : Default (MPEG)
Codec ID : XVID
Codec ID/Hint : XviD
Duration : 1 h 29 min
Bit rate : 1 935 kb/s
Width : 720 pixels
Height : 304 pixels
Display aspect ratio : 2.35:1
Frame rate : 24.000 FPS
Color space : YUV
Chroma subsampling : 4:2:0
Bit depth : 8 bits
Scan type : Progressive
Compression mode : Lossy
Bits/(Pixel*Frame) : 0.368
Stream size : 1.21 GiB (83%)
Writing library : XviD 73Audio
ID : 1
Format : AC-3
Format/Info : Audio Coding 3
Codec ID : 2000
Duration : 1 h 29 min
Bit rate mode : Constant
Bit rate : 384 kb/s
Channel(s) : 6 channels
Channel positions : Front: L C R, Side: L R, LFE
Sampling rate : 48.0 kHz
Frame rate : 31.250 FPS (1536 SPF)
Bit depth : 16 bits
Compression mode : Lossy
Stream size : 247 MiB (16%)
Alignment : Split accross interleaves
Interleave, duration : 42 ms (1.00 video frame)
Interleave, preload duratio : 500 ms
Service kind : Complete Main

Скриншоты



To download the content you need:
1. Download and install torrent client [for Windows] or for mobile system
2. Click on [Download]
Attention.
If the test YOU are NOT a ROBOT - does not work, then You are using an outdated browser.
Install the current browser and click on [Download]
Security: torrent client is allowed by Kaspersky.

[en.asmlocator.ru].t670102.torrent 
Torrent: Registered [ 2019-10-11 05:05 ] · 58D1F0C27E3C3B809651BAF4B28D20A746206130

Download .torrent

Download

15 KB

Status: checked
Completed: 2 times
Size: 1.46 GB
terms.php
[Profile] [PM]
Display posts:    
Reply to topic

Current time is: 24-Feb 22:59

All times are UTC ± 0



You cannot post new topics in this forum
You cannot reply to topics in this forum
You cannot edit your posts in this forum
You cannot delete your posts in this forum
You cannot vote in polls in this forum
You cannot attach files in this forum
You can download files in this forum
Верим фактам, а не вранью Путина! Факт, что Правительство ведёт Россию к истреблению.
Так как численность населения падает, даже не смотря на приток эмигрантов!
Русская нация вымирает и вырождается, смешиваясь с эмигрантами!
Факт, что военных и граждан предприятий заставляют голосовать за партию Единая Россия и Путина
ПОД СТРАХОМ УВОЛЬНЕНИЯ!
Нам не нужно Правительство, блокирующее личную жизнь, интернет, нарушающее сохранность данных.
Все эти действия финансируются за счёт народа!