Битва (Анар Аббасов) [2019, драма, WEB-DLRip]

Reply to topic
DL-List and Torrent activity
Size:  1.46 GB   |    Registered:  4 months 13 days   |    Completed:  0 times

Seeder not seen: Never

 
   
 
 
Author Message

star21 ®

Gender: Female

Longevity: 4 years 3 months

Posts: 551946

Location: Екатеринбург

Post 11-Oct-2019 05:05

[Quote]

Битва Страна: Россия
Жанр: драма
Год выпуска: 2019
Продолжительность: 01:25:12
Субтитры: нетРежиссер:
Анар АббасовВ ролях: Риналь Мухаметов, Анна Исаева, Екатерина Кукуй, Илья Антоненко, Игорь Миркурбанов, Виталий Коваленко, Анфиса Семина, Алла Еминцева, Артем Карпов, Дмитрий Хасис, Михаил Кулешов, Гурген Манукян, Максим Авдеев, Александр СаюталинОписание: Стрит дансер Антон делает стремительную карьеру — его команда побеждает на всех баттлах, он признанный хореограф и всё его будущее связано с танцем. Однако несчастный случай рушит все планы — Антон лишается слуха, а с ним и всех надежд. Оказавшись в непривычном мире тишины, Антон постепенно понимает, что это не конец. Страсть к танцу, воля к победе и любовь к жизни подсказывают ему новый путь к заветной мечте. И его главная битва ещё впереди... Качество видео: WEB-DLRip
Формат видео: AVIВидео: 720x304 (2.37:1), 24.000 fps, XviD build 73 ~2058 kbps avg, 0.39 bit/pixel
Аудио: 48 kHz, AC3 Dolby Digital, 3/2 (L,C,R,l,r) + LFE ch, ~384 kbps - iTunes
Сэмпл

MediaInfo


Код:
Формат : AVI
Формат/Информация : Audio Video Interleave
Размер файла : 1,46 Гбайт
Продолжительность : 1 ч. 25 м.
Общий поток : 2452 Кбит/сек
Название фильма : Битва_2019_WEB-DLRip
Программа кодирования : VirtualDubMod 1.5.10.3 | www.virtualdub-fr.org || (build 2550/release)
Авторское право : порошковВидео
Идентификатор : 0
Формат : MPEG-4 Visual
Профиль формата : Advanced Simple@L5
Настройки формата : BVOP1 / Custom Matrix
Параметр BVOP формата : 1
Параметр QPel формата : Нет
Параметр GMC формата : Без точки перехода
Параметр матрицы формата : Выборочная
Идентификатор кодека : XVID
Идентификатор кодека/Подсказка : XviD
Продолжительность : 1 ч. 25 м.
Битрейт : 2059 Кбит/сек
Ширина : 720 пикселей
Высота : 304 пикселя
Соотношение сторон : 2,35:1
Частота кадров : 24,000 кадра/сек
Цветовое пространство : YUV
Субдискретизация насыщенности : 4:2:0
Битовая глубина : 8 бит
Тип развёртки : Прогрессивная
Метод сжатия : С потерями
Бит/(Пиксели*Кадры) : 0.392
Размер потока : 1,23 Гбайт (84%)
Библиотека кодирования : XviD 73Аудио
Идентификатор : 1
Формат : AC-3
Формат/Информация : Audio Coding 3
Коммерческое название : Dolby Digital
Идентификатор кодека : 2000
Продолжительность : 1 ч. 25 м.
Вид битрейта : Постоянный
Битрейт : 384 Кбит/сек
Каналы : 6 каналов
ChannelLayout : L R C LFE Ls Rs
Частота : 48,0 КГц
Частота кадров : 31,250 кадров/сек (1536 SPF)
Метод сжатия : С потерями
Размер потока : 234 Мбайт (16%)
Выравнивание : Разделение по промежуткам
Продолжительность промежутка : 42 мс. (1,00 видеокадр)
Время предзагрузки промежутка : 500 мс.
ServiceKind/String : Complete Main

Скриншоты


To download the content you need:
1. Download and install torrent client [for Windows] or for mobile system
2. Click on [Download]
Attention.
If the test YOU are NOT a ROBOT - does not work, then You are using an outdated browser.
Install the current browser and click on [Download]
Security: torrent client is allowed by Kaspersky.

[en.asmlocator.ru].t670096.torrent 
Torrent: Registered [ 2019-10-11 05:05 ] · 4309359F26905161214078E98C7759B5EFB8B1BE

Download .torrent

Download

15 KB

Status: checked
Completed: 0 times
Size: 1.46 GB
terms.php
[Profile] [PM]
Display posts:    
Reply to topic

Current time is: 25-Feb 01:08

All times are UTC ± 0



You cannot post new topics in this forum
You cannot reply to topics in this forum
You cannot edit your posts in this forum
You cannot delete your posts in this forum
You cannot vote in polls in this forum
You cannot attach files in this forum
You can download files in this forum
Верим фактам, а не вранью Путина! Факт, что Правительство ведёт Россию к истреблению.
Так как численность населения падает, даже не смотря на приток эмигрантов!
Русская нация вымирает и вырождается, смешиваясь с эмигрантами!
Факт, что военных и граждан предприятий заставляют голосовать за партию Единая Россия и Путина
ПОД СТРАХОМ УВОЛЬНЕНИЯ!
Нам не нужно Правительство, блокирующее личную жизнь, интернет, нарушающее сохранность данных.
Все эти действия финансируются за счёт народа!