(Ambient, Drone, Glitch, Progressive Electronic, l. Flaming Pines) [CD] VA - Kaleidoscope [Compilation of experimental music from Ukraine] - 2019, FLAC (tracks+.cue), lossless

Reply to topic
DL-List and Torrent activity
Size:  354 MB   |    Registered:  8 months 19 days   |    Completed:  1 time

Seeder not seen: 5 months 11 days

 
   
 
 
Author Message

star21 ®

Gender: Female

Longevity: 4 years 6 months

Posts: 551945

Location: Екатеринбург

Post 09-Sep-2019 23:10

[Quote]

VA"Kaleidoscope"2019
[Compilation of experimental music from Ukraine].
Жанры • Ambient | Drone | Glitch | Progressive Electronic
Лэйбл • Flaming Pines (Australia) ⚫ № по каталогу • FLP079
Аудиокодек • FLAC (*.flac) ⚫ Тип рипа • tracks+.cue
Источникredacted.chНоситель • CD.
Track Listing [01:15:33]01. Alla Zagaykevych — Voice / Way .(08:24)
02. Heinali — Partita for Two STOs .(07:33)
03. Monocube — Hortus amoris .(07:42)
04. Gamardah Fungus — Memories .(05:50)
05. Endless Melancholy — Isolation .(04:45)
06. Ujif_notfound — Noi_Cht1056 .(04:45)
07. Andrey Kiritchenko — Flux .(05:56)
08. Kayak — Astra .(06:09)
09. Motorpig — Craving .(04:38)
10. r.roo — Far Far Away From You .(05:01)
11. Submatukana — Thunderstorm .(06:53)
12. Kadaitcha — Salt .(08:01).
released April 22, 2019

+ / -

о т ч е т ъ

X Lossless Decoder version 20181019 (151.1)XLD extraction logfile from 2019-07-13 11:26:27 +0200Various Artists / KaleidoscopeUsed drive : HL-DT-ST DVDRW  GS41N (revision UA04)Media type : CD-RecordableRipper mode             : XLD Secure RipperDisable audio cache     : OK for the drive with a cache less than 1375KiBMake use of C2 pointers : NORead offset correction  : 6Max retry count         : 20Gap status              : Analyzed, Appended (except HTOA)TOC of the extracted CD     Track |   Start  |  Length  | Start sector | End sector    ---------------------------------------------------------        1  | 00:00:00 | 08:23:38 |         0    |    37762        2  | 08:23:38 | 07:32:28 |     37763    |    71690        3  | 15:55:66 | 07:41:60 |     71691    |   106325        4  | 23:37:51 | 05:50:00 |    106326    |   132575        5  | 29:27:51 | 04:45:00 |    132576    |   153950        6  | 34:12:51 | 04:44:45 |    153951    |   175295        7  | 38:57:21 | 05:56:00 |    175296    |   201995        8  | 44:53:21 | 06:08:71 |    201996    |   229666        9  | 51:02:17 | 04:37:51 |    229667    |   250492       10  | 55:39:68 | 05:00:25 |    250493    |   273017       11  | 60:40:18 | 06:52:17 |    273018    |   303934       12  | 67:32:35 | 08:00:10 |    303935    |   339944AccurateRip Summary    Disc not found in AccurateRip DB.All Tracks    Album gain               : -5.99 dB    Peak                     : 0.999969    Statistics        Read error                           : 0        Jitter error (maybe fixed)           : 0        Retry sector count                   : 0        Damaged sector count                 : 0Track 01    Filename : /OUV/Various Artists - Kaleidoscope (2019) [FLAC]/01 Alla Zagaykevych - Voice/Way.flac    Pre-gap length : 00:02:00    Track gain               : -0.95 dB    Peak                     : 0.919922    CRC32 hash (test run)    : AA4E7C06    CRC32 hash               : AA4E7C06    CRC32 hash (skip zero)   : 10E37EB9    AccurateRip v1 signature : 798D9BF5    AccurateRip v2 signature : 20362940        ->Track not present in AccurateRip database.    Statistics        Read error                           : 0        Jitter error (maybe fixed)           : 0        Retry sector count                   : 0        Damaged sector count                 : 0Track 02    Filename : /OUV/Various Artists - Kaleidoscope (2019) [FLAC]/02 Heinali - Partita For Two STOs.flac    Track gain               : -1.69 dB    Peak                     : 0.666626    CRC32 hash (test run)    : 858F887F    CRC32 hash               : 858F887F    CRC32 hash (skip zero)   : 0EE82727    AccurateRip v1 signature : 87BFE46B    AccurateRip v2 signature : 73242CAD        ->Track not present in AccurateRip database.    Statistics        Read error                           : 0        Jitter error (maybe fixed)           : 0        Retry sector count                   : 0        Damaged sector count                 : 0Track 03    Filename : /OUV/Various Artists - Kaleidoscope (2019) [FLAC]/03 Monocube - Hortus Amoris.flac    Track gain               : -3.94 dB    Peak                     : 0.962891    CRC32 hash (test run)    : 14CEFDC6    CRC32 hash               : 14CEFDC6    CRC32 hash (skip zero)   : EB9FBC73    AccurateRip v1 signature : 2F1A5BCB    AccurateRip v2 signature : D911E134        ->Track not present in AccurateRip database.    Statistics        Read error                           : 0        Jitter error (maybe fixed)           : 0        Retry sector count                   : 0        Damaged sector count                 : 0Track 04    Filename : /OUV/Various Artists - Kaleidoscope (2019) [FLAC]/04 Gamardah Fungus - Memories.flac    Track gain               : -10.18 dB    Peak                     : 0.999969    CRC32 hash (test run)    : 850DFB0F    CRC32 hash               : 850DFB0F    CRC32 hash (skip zero)   : 8BD6862A    AccurateRip v1 signature : 2508A3E4    AccurateRip v2 signature : CBE8D662        ->Track not present in AccurateRip database.    Statistics        Read error                           : 0        Jitter error (maybe fixed)           : 0        Retry sector count                   : 0        Damaged sector count                 : 0Track 05    Filename : /OUV/Various Artists - Kaleidoscope (2019) [FLAC]/05 Endless Melancholy - Isolation.flac    Track gain               : -5.97 dB    Peak                     : 0.988586    CRC32 hash (test run)    : 158D3FE8    CRC32 hash               : 158D3FE8    CRC32 hash (skip zero)   : 4A562946    AccurateRip v1 signature : C9FD5A09    AccurateRip v2 signature : 588828AE        ->Track not present in AccurateRip database.    Statistics        Read error                           : 0        Jitter error (maybe fixed)           : 0        Retry sector count                   : 0        Damaged sector count                 : 0Track 06    Filename : /OUV/Various Artists - Kaleidoscope (2019) [FLAC]/06 Ujif_notfound - Noi_Cht1056.flac    Track gain               : -7.20 dB    Peak                     : 0.917267    CRC32 hash (test run)    : 0294B6C8    CRC32 hash               : 0294B6C8    CRC32 hash (skip zero)   : 7EC990D6    AccurateRip v1 signature : 47342CA4    AccurateRip v2 signature : A399AC96        ->Track not present in AccurateRip database.    Statistics        Read error                           : 0        Jitter error (maybe fixed)           : 0        Retry sector count                   : 0        Damaged sector count                 : 0Track 07    Filename : /OUV/Various Artists - Kaleidoscope (2019) [FLAC]/07 Andrey Kiritchenko - Flux.flac    Track gain               : -1.82 dB    Peak                     : 0.894989    CRC32 hash (test run)    : DAD8FE52    CRC32 hash               : DAD8FE52    CRC32 hash (skip zero)   : 01E46A88    AccurateRip v1 signature : 41930E05    AccurateRip v2 signature : 0D7B83C6        ->Track not present in AccurateRip database.    Statistics        Read error                           : 0        Jitter error (maybe fixed)           : 0        Retry sector count                   : 0        Damaged sector count                 : 0Track 08    Filename : /OUV/Various Artists - Kaleidoscope (2019) [FLAC]/08 Kayak - Astra.flac    Track gain               : -2.90 dB    Peak                     : 0.961304    CRC32 hash (test run)    : 56237F3D    CRC32 hash               : 56237F3D    CRC32 hash (skip zero)   : 3D433A7E    AccurateRip v1 signature : C3AA9A4A    AccurateRip v2 signature : 54108CCF        ->Track not present in AccurateRip database.    Statistics        Read error                           : 0        Jitter error (maybe fixed)           : 0        Retry sector count                   : 0        Damaged sector count                 : 0Track 09    Filename : /OUV/Various Artists - Kaleidoscope (2019) [FLAC]/09 Motorpig - Craving.flac    Track gain               : -3.85 dB    Peak                     : 0.999451    CRC32 hash (test run)    : 8A60E44A    CRC32 hash               : 8A60E44A    CRC32 hash (skip zero)   : AFEB26EF    AccurateRip v1 signature : B0BF4029    AccurateRip v2 signature : 82BCCFD1        ->Track not present in AccurateRip database.    Statistics        Read error                           : 0        Jitter error (maybe fixed)           : 0        Retry sector count                   : 0        Damaged sector count                 : 0Track 10    Filename : /OUV/Various Artists - Kaleidoscope (2019) [FLAC]/10 r.roo - Far Far Away From You.flac    Track gain               : -10.36 dB    Peak                     : 0.999969    CRC32 hash (test run)    : B057963B    CRC32 hash               : B057963B    CRC32 hash (skip zero)   : E0C53CFC    AccurateRip v1 signature : 96AC2902    AccurateRip v2 signature : 2DD6B9BF        ->Track not present in AccurateRip database.    Statistics        Read error                           : 0        Jitter error (maybe fixed)           : 0        Retry sector count                   : 0        Damaged sector count                 : 0Track 11    Filename : /OUV/Various Artists - Kaleidoscope (2019) [FLAC]/11 Submatukana - Thunderstorm.flac    Track gain               : -6.40 dB    Peak                     : 0.976074    CRC32 hash (test run)    : 4FFAE011    CRC32 hash               : 4FFAE011    CRC32 hash (skip zero)   : 380AACD2    AccurateRip v1 signature : 40387783    AccurateRip v2 signature : 9D1832A4        ->Track not present in AccurateRip database.    Statistics        Read error                           : 0        Jitter error (maybe fixed)           : 0        Retry sector count                   : 0        Damaged sector count                 : 0Track 12    Filename : /OUV/Various Artists - Kaleidoscope (2019) [FLAC]/12 Kadaitcha - Salt.flac    Track gain               : -3.17 dB    Peak                     : 0.997742    CRC32 hash (test run)    : 427F90D8    CRC32 hash               : 427F90D8    CRC32 hash (skip zero)   : E8CFE5F9    AccurateRip v1 signature : 7FB79CE8    AccurateRip v2 signature : 3CA5DB31        ->Track not present in AccurateRip database.    Statistics        Read error                           : 0        Jitter error (maybe fixed)           : 0        Retry sector count                   : 0        Damaged sector count                 : 0No errors occurredEnd of status report-----BEGIN XLD SIGNATURE-----yLO6hCpH8tR6YhiIixYyMo.ZqPEMNxttbw5LLTp8M4hoGzYIrPQUKCL6y4Vrd3FDg_fiszFEGgTj5ERQ6JaifGoqmffHUyLKDE72c30-----END XLD SIGNATURE-----

iндѣксная карта

REM GENRE "Electronic"TITLE "Kaleidoscope"PERFORMER "Various Artists"REM DATE "2019"REM DISCNUMBER 1REM TOTALDISCS 1REM DISCID AD11B40CREM REPLAYGAIN_ALBUM_GAIN -5.99 dBREM REPLAYGAIN_ALBUM_PEAK 0.999969REM COMPILATION TRUEFILE "01. Alla Zagaykevych - Voice. Way.wav" WAVE  TRACK 01 AUDIO    TITLE "Voice / Way"    PERFORMER "Alla Zagaykevych"    REM REPLAYGAIN_TRACK_GAIN -0.95 dB    REM REPLAYGAIN_TRACK_PEAK 0.919922    INDEX 01 00:00:00FILE "02. Heinali - Partita for Two STOs.wav" WAVE  TRACK 02 AUDIO    TITLE "Partita for Two STOs"    PERFORMER "Heinali"    REM REPLAYGAIN_TRACK_GAIN -1.69 dB    REM REPLAYGAIN_TRACK_PEAK 0.666626    INDEX 01 00:00:00FILE "03. Monocube - Hortus amoris.wav" WAVE  TRACK 03 AUDIO    TITLE "Hortus amoris"    PERFORMER "Monocube"    REM REPLAYGAIN_TRACK_GAIN -3.94 dB    REM REPLAYGAIN_TRACK_PEAK 0.962891    INDEX 01 00:00:00FILE "04. Gamardah Fungus - Memories.wav" WAVE  TRACK 04 AUDIO    TITLE "Memories"    PERFORMER "Gamardah Fungus"    REM REPLAYGAIN_TRACK_GAIN -10.18 dB    REM REPLAYGAIN_TRACK_PEAK 0.999969    INDEX 01 00:00:00FILE "05. Endless Melancholy - Isolation.wav" WAVE  TRACK 05 AUDIO    TITLE "Isolation"    PERFORMER "Endless Melancholy"    REM REPLAYGAIN_TRACK_GAIN -5.97 dB    REM REPLAYGAIN_TRACK_PEAK 0.988586    INDEX 01 00:00:00FILE "06. Ujif_notfound - Noi_Cht1056.wav" WAVE  TRACK 06 AUDIO    TITLE "Noi_Cht1056"    PERFORMER "Ujif_notfound"    REM REPLAYGAIN_TRACK_GAIN -7.20 dB    REM REPLAYGAIN_TRACK_PEAK 0.917267    INDEX 01 00:00:00FILE "07. Andrey Kiritchenko - Flux.wav" WAVE  TRACK 07 AUDIO    TITLE "Flux"    PERFORMER "Andrey Kiritchenko"    REM REPLAYGAIN_TRACK_GAIN -1.82 dB    REM REPLAYGAIN_TRACK_PEAK 0.894989    INDEX 01 00:00:00FILE "08. Kayak - Astra.wav" WAVE  TRACK 08 AUDIO    TITLE "Astra"    PERFORMER "Kayak"    REM REPLAYGAIN_TRACK_GAIN -2.90 dB    REM REPLAYGAIN_TRACK_PEAK 0.961304    INDEX 01 00:00:00FILE "09. Motorpig - Craving.wav" WAVE  TRACK 09 AUDIO    TITLE "Craving"    PERFORMER "Motorpig"    REM REPLAYGAIN_TRACK_GAIN -3.85 dB    REM REPLAYGAIN_TRACK_PEAK 0.999451    INDEX 01 00:00:00FILE "10. r.roo - Far Far Away From You.wav" WAVE  TRACK 10 AUDIO    TITLE "Far Far Away From You"    PERFORMER "r.roo"    REM REPLAYGAIN_TRACK_GAIN -10.36 dB    REM REPLAYGAIN_TRACK_PEAK 0.999969    INDEX 01 00:00:00FILE "11. Submatukana - Thunderstorm.wav" WAVE  TRACK 11 AUDIO    TITLE "Thunderstorm"    PERFORMER "Submatukana"    REM REPLAYGAIN_TRACK_GAIN -6.40 dB    REM REPLAYGAIN_TRACK_PEAK 0.976074    INDEX 01 00:00:00FILE "12. Kadaitcha - Salt.wav" WAVE  TRACK 12 AUDIO    TITLE "Salt"    PERFORMER "Kadaitcha"    REM REPLAYGAIN_TRACK_GAIN -3.17 dB    REM REPLAYGAIN_TRACK_PEAK 0.997742    INDEX 01 00:00:00

To download the content you need:
1. Download and install torrent client [for Windows] or for mobile system
2. Click on [Download]
Attention.
If the test YOU are NOT a ROBOT - does not work, then You are using an outdated browser.
Install the current browser and click on [Download]

Do not work with Yandex browser. Uploading files to them is erroneous.
Security: torrent client is allowed by Kaspersky.

[en.asmlocator.ru].t662805.torrent 
Torrent: Registered [ 2019-09-09 23:10 ] · 944C548481542A028105719919DAF740AB482212

Download .torrent

Download

15 KB

Status: checked
Completed: 1 times
Size: 354 MB
terms.php
[Profile] [PM]
Display posts:    
Reply to topic

Current time is: 29-May 03:19

All times are UTC ± 0



You cannot post new topics in this forum
You cannot reply to topics in this forum
You cannot edit your posts in this forum
You cannot delete your posts in this forum
You cannot vote in polls in this forum
You cannot attach files in this forum
You can download files in this forum
Верим фактам, а не вранью Путина! Факт, что Правительство ведёт Россию к истреблению.
Так как численность населения падает, даже не смотря на приток эмигрантов!
Русская нация вымирает и вырождается, смешиваясь с эмигрантами!
Факт, что военных и граждан предприятий заставляют голосовать за партию Единая Россия и Путина
ПОД СТРАХОМ УВОЛЬНЕНИЯ!
Нам не нужно Правительство, блокирующее личную жизнь, интернет, нарушающее сохранность данных.
Все эти действия финансируются за счёт народа!