Миллиард (Роман Прыгунов) [2019, комедия, боевик, WEB-DLRip]

Reply to topic
DL-List and Torrent activity
Size:  1.46 GB   |    Registered:  5 months 24 days   |    Completed:  5 times

Seeder not seen: 2 months 7 days

 
   
 
 
Author Message

star21 ®

Gender: Female

Longevity: 4 years 3 months

Posts: 551946

Location: Екатеринбург

Post 01-Sep-2019 00:00

[Quote]

Миллиард Жанр: комедия, боевик
Год выпуска: 2019
Продолжительность: 01:36:46Режиссёр: Роман ПрыгуновВ ролях: Владимир Машков, Александра Бортич, Гела Месхи, Павел Чинарёв, Марина Петренко, Мария Миронова, Даниил Спиваковский, Григорий Калинин, Федор Бавтриков, Дмитрий Астрахан
Описание: Влиятельный банкир делает всё возможное, чтобы не делиться имуществом со своими незаконнорожденными сыновьями. Но когда его лишают всех денег, выясняется, что помочь Матвею могут только они… Чтобы вернуть себе состояние, миллиардер будет вынужден пойти на ограбление собственного банка в Монте-Карло. А для этого ему придётся выполнить ещё более сложную задачу: вернуть доверие выросших без отца детей…Кинопоиск
SampleКачество видео: WEB-DLRip
Формат видео: AVIВидео: 720x304 (2.37:1), 25 fps, XviD build 73 ~1769 kbps avg, 0.32 bit/pixel
Аудио: 48 kHz, AC3 Dolby Digital, 3/2 (L,C,R,l,r) + LFE ch, ~384 kbps

MediaInfo

General
Complete name : D:\Milliard.2019.WEB-DLRip.avi
Format : AVI
Format/Info : Audio Video Interleave
File size : 1.46 GiB
Duration : 1 h 36 min
Overall bit rate : 2 164 kb/s
Writing application : VirtualDubMod 1.5.10.3 | www.virtualdub-fr.org || (build 2550/release)
Writing library : VirtualDubMod build 2550/releaseVideo
ID : 0
Format : MPEG-4 Visual
Format profile : Advanced Simple@L5
Format settings : BVOP1
Format settings, BVOP : 1
Format settings, QPel : No
Format settings, GMC : No warppoints
Format settings, Matrix : Default (MPEG)
Codec ID : XVID
Codec ID/Hint : XviD
Duration : 1 h 36 min
Bit rate : 1 770 kb/s
Width : 720 pixels
Height : 304 pixels
Display aspect ratio : 2.35:1
Frame rate : 25.000 FPS
Color space : YUV
Chroma subsampling : 4:2:0
Bit depth : 8 bits
Scan type : Progressive
Compression mode : Lossy
Bits/(Pixel*Frame) : 0.323
Stream size : 1.20 GiB (82%)
Writing library : XviD 73Audio
ID : 1
Format : AC-3
Format/Info : Audio Coding 3
Codec ID : 2000
Duration : 1 h 36 min
Bit rate mode : Constant
Bit rate : 384 kb/s
Channel(s) : 6 channels
Channel positions : Front: L C R, Side: L R, LFE
Sampling rate : 48.0 kHz
Frame rate : 31.250 FPS (1536 SPF)
Bit depth : 16 bits
Compression mode : Lossy
Stream size : 266 MiB (18%)
Alignment : Split accross interleaves
Interleave, duration : 40 ms (1.00 video frame)
Interleave, preload duratio : 500 ms
Service kind : Complete Main

Скриншоты



To download the content you need:
1. Download and install torrent client [for Windows] or for mobile system
2. Click on [Download]
Attention.
If the test YOU are NOT a ROBOT - does not work, then You are using an outdated browser.
Install the current browser and click on [Download]
Security: torrent client is allowed by Kaspersky.

[en.asmlocator.ru].t661437.torrent 
Torrent: Registered [ 2019-09-01 00:00 ] · A2A54ECE7BB280074D70900DFEFCACFA539DF171

Download .torrent

Download

15 KB

Status: checked
Completed: 5 times
Size: 1.46 GB
terms.php
[Profile] [PM]
Display posts:    
Reply to topic

Current time is: 25-Feb 01:11

All times are UTC ± 0



You cannot post new topics in this forum
You cannot reply to topics in this forum
You cannot edit your posts in this forum
You cannot delete your posts in this forum
You cannot vote in polls in this forum
You cannot attach files in this forum
You can download files in this forum
Верим фактам, а не вранью Путина! Факт, что Правительство ведёт Россию к истреблению.
Так как численность населения падает, даже не смотря на приток эмигрантов!
Русская нация вымирает и вырождается, смешиваясь с эмигрантами!
Факт, что военных и граждан предприятий заставляют голосовать за партию Единая Россия и Путина
ПОД СТРАХОМ УВОЛЬНЕНИЯ!
Нам не нужно Правительство, блокирующее личную жизнь, интернет, нарушающее сохранность данных.
Все эти действия финансируются за счёт народа!