Десятка (Владимир Козлов) [2013, Драма, WEB-DLRip-AVC]

Reply to topic
DL-List and Torrent activity
Size:  1.33 GB   |    Registered:  5 months 23 days   |    Completed:  0 times

Seeder not seen: Never

 
   
 
 
Author Message

star21 ®

Gender: Female

Longevity: 4 years 3 months

Posts: 551946

Location: Екатеринбург

Post 01-Sep-2019 00:00

[Quote]

Десятка Жанр: Драма
Год выпуска: 2013
Продолжительность: 01:21:42Режиссёр: Владимир КозловВ ролях: Тимофей Яковец, Екатерина Еникеева, Илья Черных, Степан Гаврилов, Елена Рудковская, Илья Федотов, Игорь Красных, Герман Акимов, Евгений Соболев, Владимир ПашнинОписание: Драма по мотивам одноименной повести Владимира Козлова. Валера подавал большие надежды как футболист, но травма ставит крест на его спортивной карьере, и он, вернувшись в родной город, учится в ПТУ. Окружающие люди — мать, все вечера проводящая у телевизора, девушка Света, лишенная каких-либо амбиций, бывшие одноклассники, которых интересует только криминал, — вряд ли чем-то могут помочь. И, оказавшись чужим в окружающем мире, но не имея своего, Валера совершает иррациональные поступки.Сэмпл: http://multi-up.com/1236347Качество видео: WEB-DLRip
Формат видео: MKVВидео: AVC, 1024:432, 2.40:1, 25.000, 2 079 kb/s
Аудио: Russian, AC-3, 48.0 kHz, 256 kb/s, 2 channels

MediaInfo

General
Unique ID : 243547670449080328015969121443488263018 (0xB739933C661D2EB6A1497F943B30EB6A)
Complete name : D:\Desiatka.2012.WEB-DLRip-AVC.mkv
Format : Matroska
Format version : Version 4
File size : 1.33 GiB
Duration : 1 h 21 min
Overall bit rate : 2 337 kb/s
Encoded date : UTC 2014-11-12 12:06:15
Writing application : mkvmerge v7.1.0 ('Good Love') 64bit built on Jul 27 2014 13:06:55
Writing library : libebml v1.3.0 + libmatroska v1.4.1Video
ID : 1
Format : AVC
Format/Info : Advanced Video Codec
Format profile : Main@L4.1
Format settings : CABAC / 4 Ref Frames
Format settings, CABAC : Yes
Format settings, Reference frames : 4 frames
Codec ID : V_MPEG4/ISO/AVC
Duration : 1 h 21 min
Bit rate : 2 079 kb/s
Width : 1 024 pixels
Height : 432 pixels
Display aspect ratio : 2.40:1
Frame rate mode : Constant
Frame rate : 25.000 FPS
Color space : YUV
Chroma subsampling : 4:2:0
Bit depth : 8 bits
Scan type : Progressive
Bits/(Pixel*Frame) : 0.188
Stream size : 1.19 GiB (89%)
Language : English
Default : Yes
Forced : NoAudio
ID : 2
Format : AC-3
Format/Info : Audio Coding 3
Commercial name : Dolby Digital
Codec ID : A_AC3
Duration : 1 h 21 min
Bit rate mode : Constant
Bit rate : 256 kb/s
Channel(s) : 2 channels
Channel layout : L R
Sampling rate : 48.0 kHz
Frame rate : 31.250 FPS (1536 SPF)
Bit depth : 16 bits
Compression mode : Lossy
Stream size : 150 MiB (11%)
Language : Russian
Service kind : Complete Main
Default : Yes
Forced : No

Скриншот c названием фильма

Скриншоты

To download the content you need:
1. Download and install torrent client [for Windows] or for mobile system
2. Click on [Download]
Attention.
If the test YOU are NOT a ROBOT - does not work, then You are using an outdated browser.
Install the current browser and click on [Download]
Security: torrent client is allowed by Kaspersky.

[en.asmlocator.ru].t661425.torrent 
Torrent: Registered [ 2019-09-01 00:00 ] · 4323807A36345A7150AB7ACD8EFF21105122ACD5

Download .torrent

Download

14 KB

Status: checked
Completed: 0 times
Size: 1.33 GB
terms.php
[Profile] [PM]
Display posts:    
Reply to topic

Current time is: 24-Feb 08:36

All times are UTC ± 0



You cannot post new topics in this forum
You cannot reply to topics in this forum
You cannot edit your posts in this forum
You cannot delete your posts in this forum
You cannot vote in polls in this forum
You cannot attach files in this forum
You can download files in this forum
Верим фактам, а не вранью Путина! Факт, что Правительство ведёт Россию к истреблению.
Так как численность населения падает, даже не смотря на приток эмигрантов!
Русская нация вымирает и вырождается, смешиваясь с эмигрантами!
Факт, что военных и граждан предприятий заставляют голосовать за партию Единая Россия и Путина
ПОД СТРАХОМ УВОЛЬНЕНИЯ!
Нам не нужно Правительство, блокирующее личную жизнь, интернет, нарушающее сохранность данных.
Все эти действия финансируются за счёт народа!