(Country-Rock, Country-Folk, Bluegrass) [CD] Dillard & Clark - The Fantastic Expedition of Dillard & Clark / Through the Morning, Through the Night - 2011 (1968/1969), FLAC (tracks+.cue), lossless

Reply to topic
DL-List and Torrent activity
Size:  531 MB   |    Registered:  6 months 3 days   |    Completed:  2 times

Seeder not seen: 1 month 22 days

 
   
 
 
Author Message

star21 ®

Gender: Female

Longevity: 4 years 1 month

Posts: 551946

Location: Екатеринбург

Post 07-Jun-2019 12:40

[Quote]

Dillard & Clark / The Fantastic Expedition of Dillard & Clark + Through the Morning, Through the Night Жанр: Country-Rock, Country-Folk, Bluegrass
Носитель: CD
Страна-производитель диска (релиза): UK
Год издания: 2011 (1968/1969)
Издатель (лейбл): Beat Goes On Records
Номер по каталогу: BGOCD987
Страна исполнителя (группы): USA
Аудиокодек: FLAC (*.flac)
Тип рипа: tracks+.cue
Продолжительность: 01:15:46
Источник: собственный рип
Наличие сканов в содержимом раздачи: да

Треклист

The Fantastic Expedition of Dillard & Clark [1968]01. Out on the Side (Gene Clark) 03:52
02. She Darked the Sun (Gene Clark / Bernie Leadon) 03:12
03. Don’t Come Rollin’ (Doug Dillard / Gene Clark / Bernie Leadon) 02:53
04. Train Leaves Here This Mornin’ (Gene Clark / Bernie Leadon) 03:51
05. With Care from Someone (Doug Dillard / Gene Clark / Bernie Leadon) 03:49
06. The Radio Song (Gene Clark / Bernie Leadon) 03:03
07. Git It On Brother (Git in Line Brother) (Lester Flatt) 02:53
08. In the Plan (Doug Dillard / Gene Clark / Bernie Leadon) 02:10
09. Something’s Wrong (Doug Dillard / Gene Clark) 02:58Through the Morning, Through the Night [1969]10. No Longer a Sweetheart of Mine (Don Reno / Red Smiley / Fred Swift) 03:16
11. Through the Morning, Through the Night (Gene Clark) 04:07
12. Rocky Top (Boudleaux Bryant) 02:49
13. So Sad (Don Everly / Phil Everly) 03:23
14. Corner Street Bar (Gene Clark) 03:36
15. I Bowed My Head and Cried Holy (Traditional, arr. Dillard & Clark) 03:33
16. Kansas City Southern (Gene Clark) 03:41
17. Four Walls (Marvin Moore / George Campbell) 03:41
18. Polly (Gene Clark) 04:23
19. Roll in My Sweet Baby’s Arms (Charlie Monroe) 02:51
20. Don’t Let Me Down (John Lennon / Paul McCartney) 03:53BONUS TRACKS21. Why Not Your Baby (Gene Clark) 03:42
22. Lyin’ Down the Middle (Gene Clark) 02:19
23. Don’t Be Cruel (Otis Blackwell / Elvis Presley) 01:53

Лог создания рипа

Exact Audio Copy V1.3 from 2. September 2016EAC extraction logfile from 7. June 2019, 0:03Dillard & Clark / The Fantastic Expedition of Dillard & Clark (1968) / Through the Morning, Through the Night (1969)Used drive  : ASUS    BW-12D1S-U   Adapter: 1  ID: 1Read mode               : SecureUtilize accurate stream : YesDefeat audio cache      : YesMake use of C2 pointers : NoRead offset correction                      : 667Overread into Lead-In and Lead-Out          : NoFill up missing offset samples with silence : YesDelete leading and trailing silent blocks   : NoNull samples used in CRC calculations       : YesUsed interface                              : Native Win32 interface for Win NT & 2000Gap handling                                : Appended to previous trackUsed output format              : User Defined EncoderSelected bitrate                : 1024 kBit/sQuality                         : HighAdd ID3 tag                     : NoCommand line compressor         : C:\Program Files (x86)\Exact Audio Copy\FLAC\FLAC.EXEAdditional command line options : -V -8 -T "Genre=%genre%" -T "Artist=%artist%" -T "Title=%title%" -T "Album=%albumtitle%" -T "Date=%year%" -T "Tracknumber=%tracknr%" -T "Comment=%comment%" %source%TOC of the extracted CD     Track |   Start  |  Length  | Start sector | End sector    ---------------------------------------------------------        1  |  0:00.00 |  3:51.69 |         0    |    17393        2  |  3:51.69 |  3:11.72 |     17394    |    31790        3  |  7:03.66 |  2:52.56 |     31791    |    44746        4  |  9:56.47 |  3:51.18 |     44747    |    62089        5  | 13:47.65 |  3:48.52 |     62090    |    79241        6  | 17:36.42 |  3:03.04 |     79242    |    92970        7  | 20:39.46 |  2:52.58 |     92971    |   105928        8  | 23:32.29 |  2:09.60 |    105929    |   115663        9  | 25:42.14 |  2:58.36 |    115664    |   129049       10  | 28:40.50 |  3:15.54 |    129050    |   143728       11  | 31:56.29 |  4:06.58 |    143729    |   162236       12  | 36:03.12 |  2:48.59 |    162237    |   174895       13  | 38:51.71 |  3:22.70 |    174896    |   190115       14  | 42:14.66 |  3:35.73 |    190116    |   206313       15  | 45:50.64 |  3:33.03 |    206314    |   222291       16  | 49:23.67 |  3:41.02 |    222292    |   238868       17  | 53:04.69 |  3:40.50 |    238869    |   255418       18  | 56:45.44 |  4:23.33 |    255419    |   275176       19  | 61:09.02 |  2:51.05 |    275177    |   288006       20  | 64:00.07 |  3:52.60 |    288007    |   305466       21  | 67:52.67 |  3:41.60 |    305467    |   322101       22  | 71:34.52 |  2:18.52 |    322102    |   332503       23  | 73:53.29 |  1:53.28 |    332504    |   341006Track  1     Filename E:\Torrents of Autumn\Dillard & Clark [2011] The Fantastic Expedition of Dillard & Clark [1968] + Through the Morning, Through the Night [1969] (remastered, expanded reissue)\01. Out on the Side.wav     Pre-gap length  0:00:02.00     Peak level 100.0 %     Extraction speed 4.9 X     Track quality 100.0 %     Test CRC ECB68709     Copy CRC ECB68709     Accurately ripped (confidence 2)  [3295ECC8]  (AR v2)     Copy OKTrack  2     Filename E:\Torrents of Autumn\Dillard & Clark [2011] The Fantastic Expedition of Dillard & Clark [1968] + Through the Morning, Through the Night [1969] (remastered, expanded reissue)\02. She Darked the Sun.wav     Pre-gap length  0:00:02.74     Peak level 100.0 %     Extraction speed 5.1 X     Track quality 100.0 %     Test CRC 6C4128A8     Copy CRC 6C4128A8     Accurately ripped (confidence 2)  [39BD19C1]  (AR v2)     Copy OKTrack  3     Filename E:\Torrents of Autumn\Dillard & Clark [2011] The Fantastic Expedition of Dillard & Clark [1968] + Through the Morning, Through the Night [1969] (remastered, expanded reissue)\03. Don't Come Rollin'.wav     Pre-gap length  0:00:02.73     Peak level 100.0 %     Extraction speed 5.4 X     Track quality 100.0 %     Test CRC BDD86438     Copy CRC BDD86438     Accurately ripped (confidence 2)  [CA010090]  (AR v2)     Copy OKTrack  4     Filename E:\Torrents of Autumn\Dillard & Clark [2011] The Fantastic Expedition of Dillard & Clark [1968] + Through the Morning, Through the Night [1969] (remastered, expanded reissue)\04. Train Leaves Here This Mornin'.wav     Pre-gap length  0:00:03.06     Peak level 94.4 %     Extraction speed 5.9 X     Track quality 100.0 %     Test CRC C3782547     Copy CRC C3782547     Accurately ripped (confidence 2)  [709AE141]  (AR v2)     Copy OKTrack  5     Filename E:\Torrents of Autumn\Dillard & Clark [2011] The Fantastic Expedition of Dillard & Clark [1968] + Through the Morning, Through the Night [1969] (remastered, expanded reissue)\05. With Care from Someone.wav     Pre-gap length  0:00:02.64     Peak level 100.0 %     Extraction speed 6.2 X     Track quality 100.0 %     Test CRC 6845E1EE     Copy CRC 6845E1EE     Accurately ripped (confidence 2)  [11A9D2BE]  (AR v2)     Copy OKTrack  6     Filename E:\Torrents of Autumn\Dillard & Clark [2011] The Fantastic Expedition of Dillard & Clark [1968] + Through the Morning, Through the Night [1969] (remastered, expanded reissue)\06. The Radio Song.wav     Pre-gap length  0:00:02.71     Peak level 100.0 %     Extraction speed 6.3 X     Track quality 100.0 %     Test CRC D95F000F     Copy CRC D95F000F     Accurately ripped (confidence 2)  [D071E99B]  (AR v2)     Copy OKTrack  7     Filename E:\Torrents of Autumn\Dillard & Clark [2011] The Fantastic Expedition of Dillard & Clark [1968] + Through the Morning, Through the Night [1969] (remastered, expanded reissue)\07. Git It On Brother (Git in Line Brother).wav     Pre-gap length  0:00:02.66     Peak level 100.0 %     Extraction speed 6.5 X     Track quality 100.0 %     Test CRC 7D3625EB     Copy CRC 7D3625EB     Accurately ripped (confidence 2)  [2B08BC6F]  (AR v2)     Copy OKTrack  8     Filename E:\Torrents of Autumn\Dillard & Clark [2011] The Fantastic Expedition of Dillard & Clark [1968] + Through the Morning, Through the Night [1969] (remastered, expanded reissue)\08. In the Plan.wav     Pre-gap length  0:00:02.72     Peak level 89.1 %     Extraction speed 5.2 X     Track quality 99.9 %     Test CRC DD292010     Copy CRC DD292010     Accurately ripped (confidence 2)  [ACD442CB]  (AR v2)     Copy OKTrack  9     Filename E:\Torrents of Autumn\Dillard & Clark [2011] The Fantastic Expedition of Dillard & Clark [1968] + Through the Morning, Through the Night [1969] (remastered, expanded reissue)\09. Something's Wrong.wav     Pre-gap length  0:00:03.00     Peak level 100.0 %     Extraction speed 6.9 X     Track quality 100.0 %     Test CRC 46A4BDBE     Copy CRC 46A4BDBE     Accurately ripped (confidence 2)  [89CD14A8]  (AR v2)     Copy OKTrack 10     Filename E:\Torrents of Autumn\Dillard & Clark [2011] The Fantastic Expedition of Dillard & Clark [1968] + Through the Morning, Through the Night [1969] (remastered, expanded reissue)\10. No Longer a Sweetheart of Mine.wav     Pre-gap length  0:00:02.63     Peak level 94.4 %     Extraction speed 7.1 X     Track quality 100.0 %     Test CRC 98085CCA     Copy CRC 98085CCA     Accurately ripped (confidence 2)  [54A488C7]  (AR v2)     Copy OKTrack 11     Filename E:\Torrents of Autumn\Dillard & Clark [2011] The Fantastic Expedition of Dillard & Clark [1968] + Through the Morning, Through the Night [1969] (remastered, expanded reissue)\11. Through the Morning, Through the Night.wav     Pre-gap length  0:00:02.66     Peak level 95.1 %     Extraction speed 7.6 X     Track quality 100.0 %     Test CRC 6670925F     Copy CRC 6670925F     Accurately ripped (confidence 2)  [AEA3B790]  (AR v2)     Copy OKTrack 12     Filename E:\Torrents of Autumn\Dillard & Clark [2011] The Fantastic Expedition of Dillard & Clark [1968] + Through the Morning, Through the Night [1969] (remastered, expanded reissue)\12. Rocky Top.wav     Pre-gap length  0:00:02.72     Peak level 100.0 %     Extraction speed 7.3 X     Track quality 100.0 %     Test CRC 30FC4C48     Copy CRC 30FC4C48     Accurately ripped (confidence 2)  [823DDECE]  (AR v2)     Copy OKTrack 13     Filename E:\Torrents of Autumn\Dillard & Clark [2011] The Fantastic Expedition of Dillard & Clark [1968] + Through the Morning, Through the Night [1969] (remastered, expanded reissue)\13. So Sad.wav     Pre-gap length  0:00:02.67     Peak level 94.4 %     Extraction speed 7.6 X     Track quality 100.0 %     Test CRC B9736651     Copy CRC B9736651     Accurately ripped (confidence 2)  [DE82475A]  (AR v2)     Copy OKTrack 14     Filename E:\Torrents of Autumn\Dillard & Clark [2011] The Fantastic Expedition of Dillard & Clark [1968] + Through the Morning, Through the Night [1969] (remastered, expanded reissue)\14. Corner Street Bar.wav     Pre-gap length  0:00:02.69     Peak level 100.0 %     Extraction speed 7.9 X     Track quality 100.0 %     Test CRC 7EAFE362     Copy CRC 7EAFE362     Accurately ripped (confidence 2)  [5A9B6BA2]  (AR v2)     Copy OKTrack 15     Filename E:\Torrents of Autumn\Dillard & Clark [2011] The Fantastic Expedition of Dillard & Clark [1968] + Through the Morning, Through the Night [1969] (remastered, expanded reissue)\15. I Bowed My Head and Cried Holy.wav     Pre-gap length  0:00:02.69     Peak level 100.0 %     Extraction speed 8.0 X     Track quality 100.0 %     Test CRC 12C0CE91     Copy CRC 12C0CE91     Accurately ripped (confidence 2)  [A3D19E19]  (AR v2)     Copy OKTrack 16     Filename E:\Torrents of Autumn\Dillard & Clark [2011] The Fantastic Expedition of Dillard & Clark [1968] + Through the Morning, Through the Night [1969] (remastered, expanded reissue)\16. Kansas City Southern.wav     Pre-gap length  0:00:02.66     Peak level 100.0 %     Extraction speed 8.3 X     Track quality 100.0 %     Test CRC B5D65D53     Copy CRC B5D65D53     Accurately ripped (confidence 2)  [8C3FB680]  (AR v2)     Copy OKTrack 17     Filename E:\Torrents of Autumn\Dillard & Clark [2011] The Fantastic Expedition of Dillard & Clark [1968] + Through the Morning, Through the Night [1969] (remastered, expanded reissue)\17. Four Walls.wav     Pre-gap length  0:00:02.63     Peak level 94.4 %     Extraction speed 8.5 X     Track quality 100.0 %     Test CRC 86BB1F34     Copy CRC 86BB1F34     Accurately ripped (confidence 2)  [9EA69C42]  (AR v2)     Copy OKTrack 18     Filename E:\Torrents of Autumn\Dillard & Clark [2011] The Fantastic Expedition of Dillard & Clark [1968] + Through the Morning, Through the Night [1969] (remastered, expanded reissue)\18. Polly.wav     Pre-gap length  0:00:02.71     Peak level 94.4 %     Extraction speed 8.5 X     Track quality 100.0 %     Test CRC 6499A2C0     Copy CRC 6499A2C0     Accurately ripped (confidence 2)  [72FD0E86]  (AR v2)     Copy OKTrack 19     Filename E:\Torrents of Autumn\Dillard & Clark [2011] The Fantastic Expedition of Dillard & Clark [1968] + Through the Morning, Through the Night [1969] (remastered, expanded reissue)\19. Roll in My Sweet Baby's Arms.wav     Pre-gap length  0:00:02.67     Peak level 100.0 %     Extraction speed 8.2 X     Track quality 100.0 %     Test CRC 3FB4957A     Copy CRC 3FB4957A     Accurately ripped (confidence 2)  [7C1FEABB]  (AR v2)     Copy OKTrack 20     Filename E:\Torrents of Autumn\Dillard & Clark [2011] The Fantastic Expedition of Dillard & Clark [1968] + Through the Morning, Through the Night [1969] (remastered, expanded reissue)\20. Don't Let Me Down.wav     Pre-gap length  0:00:03.01     Peak level 100.0 %     Extraction speed 8.7 X     Track quality 100.0 %     Test CRC 47B5014B     Copy CRC 47B5014B     Accurately ripped (confidence 2)  [FDFA26F1]  (AR v2)     Copy OKTrack 21     Filename E:\Torrents of Autumn\Dillard & Clark [2011] The Fantastic Expedition of Dillard & Clark [1968] + Through the Morning, Through the Night [1969] (remastered, expanded reissue)\21. Why Not Your Baby [bonus track].wav     Pre-gap length  0:00:02.73     Peak level 79.4 %     Extraction speed 8.7 X     Track quality 100.0 %     Test CRC 52FE9723     Copy CRC 52FE9723     Accurately ripped (confidence 2)  [3FDD21A4]  (AR v2)     Copy OKTrack 22     Filename E:\Torrents of Autumn\Dillard & Clark [2011] The Fantastic Expedition of Dillard & Clark [1968] + Through the Morning, Through the Night [1969] (remastered, expanded reissue)\22. Lyin' Down the Middle [bonus track].wav     Pre-gap length  0:00:02.13     Peak level 100.0 %     Extraction speed 8.2 X     Track quality 100.0 %     Test CRC 68B3A064     Copy CRC 68B3A064     Accurately ripped (confidence 2)  [C8D5627A]  (AR v2)     Copy OKTrack 23     Filename E:\Torrents of Autumn\Dillard & Clark [2011] The Fantastic Expedition of Dillard & Clark [1968] + Through the Morning, Through the Night [1969] (remastered, expanded reissue)\23. Don't Be Cruel [bonus track].wav     Pre-gap length  0:00:02.57     Peak level 89.1 %     Extraction speed 8.1 X     Track quality 100.0 %     Test CRC 5C0B1B9B     Copy CRC 5C0B1B9B     Accurately ripped (confidence 2)  [8646B93E]  (AR v2)     Copy OKAll tracks accurately rippedNo errors occurredEnd of status report---- CUETools DB Plugin V2.1.6[CTDB TOCID: C83Nvsytcx_hAIPLPY6DJmebWt4-] foundSubmit result: C83Nvsytcx_hAIPLPY6DJmebWt4- has been confirmedTrack | CTDB Status  1   | (30/30) Accurately ripped  2   | (30/30) Accurately ripped  3   | (30/30) Accurately ripped  4   | (30/30) Accurately ripped  5   | (30/30) Accurately ripped  6   | (30/30) Accurately ripped  7   | (30/30) Accurately ripped  8   | (30/30) Accurately ripped  9   | (30/30) Accurately ripped 10   | (30/30) Accurately ripped 11   | (30/30) Accurately ripped 12   | (30/30) Accurately ripped 13   | (30/30) Accurately ripped 14   | (30/30) Accurately ripped 15   | (30/30) Accurately ripped 16   | (30/30) Accurately ripped 17   | (30/30) Accurately ripped 18   | (30/30) Accurately ripped 19   | (30/30) Accurately ripped 20   | (30/30) Accurately ripped 21   | (30/30) Accurately ripped 22   | (30/30) Accurately ripped 23   | (10/30) Accurately ripped, or (20/30) differs in 51605 samples @01:00:38-01:00:39,01:04:28-01:04:29,01:12:08-01:12:11,01:24:46-01:24:47,01:24:68-01:24:69,01:25:15-01:25:16,01:33:41-01:33:44,01:33:63-01:33:64,01:36:17-01:36:19,01:36:40-01:36:41,01:36:62-01:36:64,01:50:19-01:50:20,01:50:41-01:51:10If you are sure that your rip contains errors, you can use CUETools to repair it.==== Log checksum 1CD1D725EE6152E8E523F6FBE79C3D17B5CEC66F624D49A00809F9F3ACFA7FC1 ====

Содержание индексной карты (.CUE)

REM GENRE Pop-RockREM DATE 2011REM DISCID 5111C217REM COMMENT "ExactAudioCopy v1.3"PERFORMER "Dillard & Clark"TITLE "The Fantastic Expedition of Dillard & Clark (1968) / Through the Morning, Thr..."REM COMPOSER ""FILE "01. Out on the Side.wav" WAVE  TRACK 01 AUDIO    TITLE "Out on the Side"    PERFORMER "Dillard & Clark"    REM COMPOSER "Gene Clark"    INDEX 01 00:00:00  TRACK 02 AUDIO    TITLE "She Darked the Sun"    PERFORMER "Dillard & Clark"    REM COMPOSER "Gene Clark / Bernie Leadon"    INDEX 00 03:48:70FILE "02. She Darked the Sun.wav" WAVE    INDEX 01 00:00:00  TRACK 03 AUDIO    TITLE "Don't Come Rollin'"    PERFORMER "Dillard & Clark"    REM COMPOSER "Doug Dillard / Gene Clark / Bernie Leadon"    INDEX 00 03:08:74FILE "03. Don't Come Rollin'.wav" WAVE    INDEX 01 00:00:00  TRACK 04 AUDIO    TITLE "Train Leaves Here This Mornin'"    PERFORMER "Dillard & Clark"    REM COMPOSER "Gene Clark / Bernie Leadon"    INDEX 00 02:49:50FILE "04. Train Leaves Here This Mornin'.wav" WAVE    INDEX 01 00:00:00  TRACK 05 AUDIO    TITLE "With Care from Someone"    PERFORMER "Dillard & Clark"    REM COMPOSER "Doug Dillard / Gene Clark / Bernie Leadon"    INDEX 00 03:48:29FILE "05. With Care from Someone.wav" WAVE    INDEX 01 00:00:00  TRACK 06 AUDIO    TITLE "The Radio Song"    PERFORMER "Dillard & Clark"    REM COMPOSER "Gene Clark / Bernie Leadon"    INDEX 00 03:45:56FILE "06. The Radio Song.wav" WAVE    INDEX 01 00:00:00  TRACK 07 AUDIO    TITLE "Git It On Brother (Git in Line Brother)"    PERFORMER "Dillard & Clark"    REM COMPOSER "Lester Flatt"    INDEX 00 03:00:13FILE "07. Git It On Brother (Git in Line Brother).wav" WAVE    INDEX 01 00:00:00  TRACK 08 AUDIO    TITLE "In the Plan"    PERFORMER "Dillard & Clark"    REM COMPOSER "Doug Dillard / Gene Clark / Bernie Leadon"    INDEX 00 02:49:61FILE "08. In the Plan.wav" WAVE    INDEX 01 00:00:00  TRACK 09 AUDIO    TITLE "Something's Wrong"    PERFORMER "Dillard & Clark"    REM COMPOSER "Doug Dillard / Gene Clark"    INDEX 00 02:06:60FILE "09. Something's Wrong.wav" WAVE    INDEX 01 00:00:00  TRACK 10 AUDIO    TITLE "No Longer a Sweetheart of Mine"    PERFORMER "Dillard & Clark"    REM COMPOSER "Don Reno / Red Smiley / Fred Swift"    INDEX 00 02:55:48FILE "10. No Longer a Sweetheart of Mine.wav" WAVE    INDEX 01 00:00:00  TRACK 11 AUDIO    TITLE "Through the Morning, Through the Night"    PERFORMER "Dillard & Clark"    REM COMPOSER "Gene Clark"    INDEX 00 03:12:63FILE "11. Through the Morning, Through the Night.wav" WAVE    INDEX 01 00:00:00  TRACK 12 AUDIO    TITLE "Rocky Top"    PERFORMER "Dillard & Clark"    REM COMPOSER "Boudleaux Bryant"    INDEX 00 04:03:61FILE "12. Rocky Top.wav" WAVE    INDEX 01 00:00:00  TRACK 13 AUDIO    TITLE "So Sad"    PERFORMER "Dillard & Clark"    REM COMPOSER "Don Everly / Phil Everly"    INDEX 00 02:45:67FILE "13. So Sad.wav" WAVE    INDEX 01 00:00:00  TRACK 14 AUDIO    TITLE "Corner Street Bar"    PERFORMER "Dillard & Clark"    REM COMPOSER "Gene Clark"    INDEX 00 03:20:01FILE "14. Corner Street Bar.wav" WAVE    INDEX 01 00:00:00  TRACK 15 AUDIO    TITLE "I Bowed My Head and Cried Holy"    PERFORMER "Dillard & Clark"    REM COMPOSER "Traditional, arr. Dillard & Clark"    INDEX 00 03:33:04FILE "15. I Bowed My Head and Cried Holy.wav" WAVE    INDEX 01 00:00:00  TRACK 16 AUDIO    TITLE "Kansas City Southern"    PERFORMER "Dillard & Clark"    REM COMPOSER "Gene Clark"    INDEX 00 03:30:12FILE "16. Kansas City Southern.wav" WAVE    INDEX 01 00:00:00  TRACK 17 AUDIO    TITLE "Four Walls"    PERFORMER "Dillard & Clark"    REM COMPOSER "Marvin Moore / George Campbell"    INDEX 00 03:38:14FILE "17. Four Walls.wav" WAVE    INDEX 01 00:00:00  TRACK 18 AUDIO    TITLE "Polly"    PERFORMER "Dillard & Clark"    REM COMPOSER "Gene Clark"    INDEX 00 03:37:54FILE "18. Polly.wav" WAVE    INDEX 01 00:00:00  TRACK 19 AUDIO    TITLE "Roll in My Sweet Baby's Arms"    PERFORMER "Dillard & Clark"    REM COMPOSER "Charlie Monroe"    INDEX 00 04:20:41FILE "19. Roll in My Sweet Baby's Arms.wav" WAVE    INDEX 01 00:00:00  TRACK 20 AUDIO    TITLE "Don't Let Me Down"    PERFORMER "Dillard & Clark"    REM COMPOSER "John Lennon / Paul McCartney"    INDEX 00 02:48:04FILE "20. Don't Let Me Down.wav" WAVE    INDEX 01 00:00:00  TRACK 21 AUDIO    TITLE "Why Not Your Baby [bonus track]"    PERFORMER "Dillard & Clark"    REM COMPOSER "Gene Clark"    INDEX 00 03:49:62FILE "21. Why Not Your Baby [bonus track].wav" WAVE    INDEX 01 00:00:00  TRACK 22 AUDIO    TITLE "Lyin' Down the Middle [bonus track]"    PERFORMER "Dillard & Clark"    REM COMPOSER "Gene Clark"    INDEX 00 03:39:47FILE "22. Lyin' Down the Middle [bonus track].wav" WAVE    INDEX 01 00:00:00  TRACK 23 AUDIO    TITLE "Don't Be Cruel [bonus track]"    PERFORMER "Dillard & Clark"    REM COMPOSER "Otis Blackwell / Elvis Presley"    INDEX 00 02:15:70FILE "23. Don't Be Cruel [bonus track].wav" WAVE    INDEX 01 00:00:00

О группе

Dillard & Clark, a duo featuring former Byrd Gene Clark and Doug Dillard of the Dillards, was one of the first country-rock groups to form in the late ’60s. The group formed in 1968 and became one of pioneers of country-rock, releasing two albums before dissolving.
In 1968, Dillard recorded his first solo album, The Banjo Album, which featured such rock musicians as Clark and Bernie Leadon. In the spring of 1968, Dillard toured England as a member of the Byrds, which led to the duo of Dillard & Clark, which officially formed later that summer. The duo secured a record contract with A&M and released their debut album, The Fantastic Expedition of Dillard & Clark, late in 1968. The record was recorded with Bernie Leadon (guitar), Don Beck (dobro, mandolin), and David Jackson (bass). Dillard & Clark toured following the release of the album; their supporting band featured former Byrd Michael Clarke on drums.
Dillard & Clark began recording a second album early in 1969 with a new supporting band. The new lineup featured Leadon, fiddler Byron Berline, drummer Jon Corneal, and guitarist Donna Washburn; steel guitarist Sneaky Pete Kleinow and Chris Hillman, who were both members of the Flying Burrito Brothers, also guested on the album. The resulting record, Through the Morning, Through the Night, appeared later in the year. After its release, Leadon left the duo; he would join the Eagles soon after his departure. Clark decided to pursue a solo career in early 1970. Dillard continued his solo career, using the remaining members of the duo’s backing band as the core of his new outfit, the Expedition.
Dillard and Clark continued to pursue solo careers throughout the ’80s and ’90s, with Dillard garnering more success and critical acclaim than Clark. Clark died in 1991 at the age of 46. (Stephen Thomas Erlewine, AllMusic)

Об альбоме (сборнике)

In the minds of many fans, 1968 was Year One for country-rock, the year that the International Submarine Band’s Safe at Home and the ByrdsSweetheart of the Rodeo heralded the arrival of a fresh new sound. But former Byrds vocalist Gene Clark had already made some prescient gestures toward fusing country with folk-rock on his 1967 solo debut, Gene Clark with the Godsin Brothers, and when Clark released his first collaborative effort with banjo virtuoso Doug Dillard a year later, they created a mature and confident sound that was exciting, thoughtful, and deeply soulful in a way those better-known albums were not. The Fantastic Expedition of Dillard & Clark initially grew out of a series of informal jams between Clark and Dillard, but by the time they went into the studio, Dillard, Clark, and their picking partners Bernie Leadon, Don Beck, and David Jackson had honed their music to a fine point; there’s still a breezy sense of freedom and discovery in this music, but the musicians mesh with one another beautifully, and while elements of bluegrass, vintage country, folk, and rock all inform this music, the songs (mostly written by Clark in collaboration with Dillard, Leadon, or both) and arrangements integrate the pieces seamlessly. Doug Dillard’s banjo and fiddle figure prominently in the arrangements, and his performances are expert and heartfelt, but Clark is the true cornerstone of this album; he rarely, if ever, sang this well in the studio, and the poetic sensibility and intelligent, graceful tone of the songs brought out the best in him, with “She Darked the Sun,” “Something’s Wrong,” and “The Radio Song” standing proudly alongside anything in his catalog. The Dillard and Clark partnership proved short-lived, and their second and final album was a disappointing set dominated by covers, but The Fantastic Expedition of Dillard & Clark is one of the first, inarguable classics of country-rock. Time has been kinder to this album than most of the genre’s founding works, and it’s a work rooted in tradition while reveling in freedom and new ideas and making the most of them all. (Mark Deming, AllMusic)Dillard & Clark’s second outing was a disappointment in relation to their far more eclectic and original prior effort, The Fantastic Expedition of Dillard & Clark. The primary difference is that whereas the earlier record had leaned on Gene Clark’s original compositions, and a reasonably adventurous attitude toward country-rock fusion in general, the follow-up saw them turning into a much more traditional folk/bluegrass act. In part this was due to the addition of guitarist Donna Washburn on harmony and occasional lead vocal, and the departure of Bernie Leadon. But in the main, it was because Clark wrote just four of the tracks, surrounded by covers of songs by Reno & Smiley, Bill Monroe, the Everly Brothers, and even the Beatles’ “Don’t Let Me Down” (which is actually one of the better songs on the album). Taken on its own, it’s a fair, pleasant, heavily bluegrass-flavored outing with few surprises. The Clark originals sound considerably more personal and contemporary than the more traditional tunes, though Clark’s “Corner Street Bar” was a surprisingly dreadful comic barroom lament. Either the band didn’t realize that Clark’s voice and compositions were their greatest potential assets, or Clark himself was not assertive enough in pushing himself to the forefront. (Richie Unterberger, AllMusic)The Dillard & Clark duo was Gene Clark’s most artistically successful post-Byrds collaboration, and his best venture into country-rock as well. With Chris Hillman and Bernie Leadon playing behind the duo throughout the first album, in many ways it is as much an offshoot of the Flying Burrito Brothers’ work as it is of the Byrds, with more of the Burritos’ feel. The standard of playing and singing on both albums is extremely high, but the nine songs on The Fantastic Expedition of Dillard & Clark are more impressive, both as recordings and compositions. The eleven songs from Through the Morning, Through the Night fail to match the joyous quality or the originality of their predecessors and the sound is less unified, mostly due to the presence of a third singer in the guise of Donna Washburn. The mix of rollicking bluegrass (such as “Rocky Top” which is sung by Washburn) and covers like the Beatles’ “Don’t Let Me Down” and the Everly Brothers’ “So Sad” is also less successful. But combined together, these 20 songs are an essential addition to any country-rock collection and are also indispensible to fans of the Byrds or the Flying Burrito Brothers. The duo’s two albums are combined on one CD, making for more than an hour of great listening. Mastered in state-of-the-art sound that still holds up years later, this is the version of the two albums to get. (Bruce Eder, AllMusic)

Состав

TRACKS 1 – 9:
Gene Clark: guitar, harmonica
Douglas Dillard: banjo, guitar, violin
Bernie Leadon: banjo, guitar
Don Beck: dobro, mandolin
David Jackson: string bass
Andy Belling: electric harpsichord
Chris Hillman: mandolinTRACKS 10 – 23:
Doug Dillard: vocals, banjo, guitar, fiddle
Donna Washburn: vocals, tambourine, guitar
Gene Clark: vocals, guitar, harp
Byron Berline: fiddle
Jon Corneal: drums, tambourine
David Jackson: vocals, bass, piano, cello
+
Sneaky Pete: steel guitar
Chris Hillman: mandolin
Bernie Leadon: guitar, bassProduced by Larry Marks

To download the content you need:
1. Download and install torrent client [for Windows] or for mobile system
2. Click on [Download]
Attention.
If the test YOU are NOT a ROBOT - does not work, then You are using an outdated browser.
Install the current browser and click on [Download]
Security: torrent client is allowed by Kaspersky.

[en.asmlocator.ru].t643475.torrent 
Torrent: Registered [ 2019-06-07 12:40 ] · 2AB3BF06C5592AE808A557BF16D16C2C1F7804B7

Download .torrent

Download

14 KB

Status: checked
Completed: 2 times
Size: 531 MB
terms.php
[Profile] [PM]
Display posts:    
Reply to topic

Current time is: 11-Dec 05:27

All times are UTC ± 0



You cannot post new topics in this forum
You cannot reply to topics in this forum
You cannot edit your posts in this forum
You cannot delete your posts in this forum
You cannot vote in polls in this forum
You cannot attach files in this forum
You can download files in this forum
Верим фактам, а не вранью Путина! Факт, что Правительство ведёт Россию к истреблению.
Так как численность населения падает, даже не смотря на приток эмигрантов!
Русская нация вымирает и вырождается, смешиваясь с эмигрантами!
Факт, что военных и граждан предприятий заставляют голосовать за партию Единая Россия и Путина
ПОД СТРАХОМ УВОЛЬНЕНИЯ!
Нам не нужно Правительство, блокирующее личную жизнь, интернет, нарушающее сохранность данных.
Все эти действия финансируются за счёт народа!