Сохранить мир – наша обязанность / Dem Frieden verpflichtet (Райнер Бахманн / Reiner Bachmann, Матиас Блохвиц / Mathias Blochwitz) [1981, документальный, VHSRip]

Reply to topic
DL-List and Torrent activity
Size:  699 MB   |    Registered:  9 months 25 days   |    Completed:  1 time

Seeder not seen: 1 month 26 days

 
   
 
 
Author Message

star21 ®

Gender: Female

Longevity: 4 years 1 month

Posts: 551946

Location: Екатеринбург

Post 17-Feb-2019 08:55

[Quote]

Сохранить мир – наша обязанность / Dem Frieden verpflichtet Год выпуска: 1981
Страна: ГДР
Жанр: документальный
Продолжительность: 00:58:13
Перевод: Одноголосый закадровый (Ростислав Ганичев)
Доп. инфо о переводе: Ростислав Ганичев
Русские субтитры: нетРежиссер: Райнер Бахманн / Reiner Bachmann, Матиас Блохвиц / Mathias BlochwitzОписание: В 1980 году исполнилось 25 лет со дня основания Организации Варшавского Договора.
В честь юбилея на территории ГДР были организованы грандиозные международные учения «Waffenbrüderschaft-80» (Братство по оружию-80). Выступление руководства ГДР на торжественной церемонии открытия маневров в Потсдаме, основные этапы учений, рассказ об отдельных военнослужащих Венгрии, Румынии, ГДР, Чехословакии, Болгарии, Польши и СССР и завершающий торжественный парад. Сценарий учений: отражение агрессии на Германскую Демократическую Республику – противодействие сухопутным силам и подразделениям морского десанта противника, переход в контрнаступление и высадка десанта на вражеском берегу.
В фильм включены речи генерального секретаря ГДР Эриха Хоннекера, министра обороны генерал-полковника Хайнца Кесслера и члена Национального совета обороны генерала армии Хайнца Хоффманна.Сэмпл: http://sendfile.su/1476013качество: VHSRip
формат: AVI
Видео: 640x480 (1.33:1), 25 fps, XviD MPEG-4 ~1540 kbps avg, 0.20 bit/pixel
Аудио: 48 kHz, MPEG Layer 3, 2 ch, ~128.00 kbps avg

MediaInfo

ОбщееПолное имя                               : D:\Dem Frieden verpflichtet_1981_VHSRip.aviФормат                                   : AVIФормат/Информация                        : Audio Video InterleaveРазмер файла                             : 699 МбайтПродолжительность                        : 58 м.Общий поток                              : 1678 Кбит/секПрограмма кодирования                    : VirtualDubMod 1.5.10.3 | www.virtualdub-fr.org || (build 2550/release)Библиотека кодирования                   : VirtualDubMod build 2550/releaseВидеоИдентификатор                            : 0Формат                                   : MPEG-4 VisualПрофиль формата                          : Simple@L1Параметр BVOP формата                    : НетПараметр QPel формата                    : НетПараметр GMC формата                     : Без точки переходаПараметр матрицы формата                 : Default (H.263)Идентификатор кодека                     : XVIDИдентификатор кодека/Подсказка           : XviDПродолжительность                        : 58 м.Битрейт                                  : 1540 Кбит/секШирина                                   : 640 пикселейВысота                                   : 480 пикселейСоотношение сторон                       : 4:3Частота кадров                           : 25,000 кадров/секЦветовое пространство                    : YUVСубдискретизация насыщенности            : 4:2:0Битовая глубина                          : 8 битТип развёртки                            : ПрогрессивнаяМетод сжатия                             : С потерямиБит/(Пиксели*Кадры)                      : 0.201Размер потока                            : 641 Мбайт (92%)Библиотека кодирования                   : Lavc53.33.0АудиоИдентификатор                            : 1Формат                                   : MPEG AudioВерсия формата                           : Version 1Профиль формата                          : Layer 3Идентификатор кодека                     : 55Идентификатор кодека/Подсказка           : MP3Продолжительность                        : 58 м.Вид битрейта                             : ПостоянныйБитрейт                                  : 128 Кбит/секКаналы                                   : 2 каналаЧастота                                  : 48,0 КГцМетод сжатия                             : С потерямиРазмер потока                            : 53,3 Мбайт (8%)Выравнивание                             : Соединение по промежуткамПродолжительность промежутка             : 40  мс. (1,00 видеокадр)Время предзагрузки промежутка            : 504  мс.Библиотека кодирования                   : LAME3.99rНастройки программы                      : -m s -V 4 -q 2 -lowpass 17 -b 128

Скриншоты

To download the content you need:
1. Download and install torrent client [for Windows] or for mobile system
2. Click on [Download]
Attention.
If the test YOU are NOT a ROBOT - does not work, then You are using an outdated browser.
Install the current browser and click on [Download]
Security: torrent client is allowed by Kaspersky.

[en.asmlocator.ru].t611829.torrent 
Torrent: Registered [ 2019-02-17 08:55 ] · 741D2ECDEEEB271536FD075D9F88287B408183D6

Download .torrent

Download

14 KB

Status: checked
Completed: 1 times
Size: 699 MB
terms.php
[Profile] [PM]
Display posts:    
Reply to topic

Current time is: 15-Dec 02:25

All times are UTC ± 0



You cannot post new topics in this forum
You cannot reply to topics in this forum
You cannot edit your posts in this forum
You cannot delete your posts in this forum
You cannot vote in polls in this forum
You cannot attach files in this forum
You can download files in this forum
Верим фактам, а не вранью Путина! Факт, что Правительство ведёт Россию к истреблению.
Так как численность населения падает, даже не смотря на приток эмигрантов!
Русская нация вымирает и вырождается, смешиваясь с эмигрантами!
Факт, что военных и граждан предприятий заставляют голосовать за партию Единая Россия и Путина
ПОД СТРАХОМ УВОЛЬНЕНИЯ!
Нам не нужно Правительство, блокирующее личную жизнь, интернет, нарушающее сохранность данных.
Все эти действия финансируются за счёт народа!