History Channel. Шон Бин при Ватерлоо (2 серии из 2) / Sean Bean on Waterloo (Патрик МакГрэйди / Patrik McGrady) [2015, Документальный, война, история, исследование, HDTVRip]

Reply to topic
DL-List and Torrent activity
Size:  1.28 GB   |    Registered:  10 months 9 days   |    Completed:  0 times

Seeder not seen: Never

 
   
 
 
Author Message

star21 ®

Gender: Female

Longevity: 4 years 1 month

Posts: 551946

Location: Екатеринбург

Post 01-Feb-2019 09:46

[Quote]

History Channel. Шон Бин при Ватерлоо (2 серии из 2) / Sean Bean on Waterloo Дата/Год выпуска: 2015
Страна: Великобритания
Жанр: Документальный, война, история, исследование
Продолжительность: 2 x ~ 00:43:26
Перевод: Профессиональный (двухголосый закадровый)
Режиссер: Патрик МакГрэйди / Patrik McGradyТелеканал: History ChannelОписание: Голливудский актер Шон Бин рассказывает историю сражения при Ватерлоо, одной из самых значимых битв истории. Рассказ Шона вдохновлен его собственным опытом игры наполеоновского солдата Ричарда Шарпа в телевизионных фильмах на основе бестселлеров Бернарда Корнуэлла. В фильме он опирается на свидетельские показания солдат, которые сражались при Ватерлоо, чтобы рассказать историю драматических событий 18 июня 1815 года, так как они были видены обычными солдатами, которые сражались там. Он объединяет хронологию битвы и посещает некоторые из легендарных мест, где был решен исход битвы, включая здания в Угумонте, которые стали свидетелями самых тяжелых боев.
Чтобы оживить свою историю, он вместе с нынешними солдатами британской армии и экспертами по военной истории, проводит практические эксперименты, которые приближают нас реальности боевых действий при Ватерлоо. В Королевских арсеналах в Лидсе он опробует оригинальный мушкет, заряженный боевыми патронами и поучаствует в эксперименте, чтобы проверить ущерб, нанесенный оригинальными саблями кавалерии при Ватерлоо. Он беседует с реконструкторами из Наполеоновской ассоциации, чтобы узнать больше о тактике пехоты и артиллерии, используемой в битве. В Бельгии он встречается с археологом, нашедшего скелет солдата Ватерлоо, который погиб во время битвы и чьи останки лежали на поле боя на протяжении почти 200 лет.Доп. информация: Авторство релиза - alf62
качество: HDTVRip
формат: AVI
Видео: 720x400 (1.80:1), 25 fps, XviD build 73 ~1899 kbps avg, 0.26 bit/pixel
Аудио: 48 kHz, AC3 Dolby Digital, 2/0 (L,R) ch, ~192.00 kbps avgШон Бин при Ватерлоо / Sean Bean on Waterloo на rutracker.cr

Список выпусков/серий

1 серия
Шон Бин начинает свое путешествие в Чатеме в Юго-Восточной Англии, где большая группа энтузиастов истории репетирует, чтобы принять участие в огромной реконструкции битвы, к ее 200-летию в июне 2015 года. Отсюда он отправляется в Бельгию, чтобы посетить место битвы. Он встречается с историком профессором Саулом Давидом, который описывает, как британский генерал-лорд Веллингтон подготовился к битве со своим великим противником, французским императоратором Наполеоном Бонапартом.2 серия
Шон вместе с историком профессором Саулом Давидом, расскажет как британская и французская пехота впервые столкнулись в Ватерлоо. Затем он отправляется в Йоркшир в Англию, чтобы изучить роль кавалерии при Ватерлоо. Он встречается с экспертами по кавалерии Аланом Ларсеном и Дэвидом Блэкмором, которые объясняют роли, которые играют легкие и тяжелые кавалерийские подразделения. В Королевских арсеналах в Лидсе, Шон видит образцы оригинального кавалерийского оружия, используемого во время битвы, и обнаруживает учебное пособие, используемое для подготовки всадников к бою.

MediaInfo

ОбщееПолное имя                               : C:\Шон Бин при Ватерлоо\HC.Шон.Бин.при.Ватерлоо.(2.серии.из.2).2015.XviD.HDTVRip.alf62\HC.Шон.Бин.при.Ватерлоо.(2.серия).2015.XviD.HDTVRip.alf62.aviФормат                                   : AVIФормат/Информация                        : Audio Video InterleaveРазмер файла                             : 653 МбайтПродолжительность                        : 43 м.Общий поток                              : 2102 Кбит/секПрограмма кодирования                    : VirtualDubMod 1.5.10.3 | www.virtualdub-fr.org || (build 2550/release)Библиотека кодирования                   : VirtualDubMod build 2550/releaseВидеоИдентификатор                            : 0Формат                                   : MPEG-4 VisualПрофиль формата                          : Advanced Simple@L5Параметр BVOP формата                    : 2Параметр QPel формата                    : НетПараметр GMC формата                     : Без точки переходаПараметр матрицы формата                 : Default (MPEG)Идентификатор кодека                     : XVIDИдентификатор кодека/Подсказка           : XviDПродолжительность                        : 43 м.Битрейт                                  : 1900 Кбит/секШирина                                   : 720 пикселейВысота                                   : 400 пикселейСоотношение сторон                       : 16:9Частота кадров                           : 25,000 кадров/секЦветовое пространство                    : YUVСубдискретизация насыщенности            : 4:2:0Битовая глубина                          : 8 битТип развёртки                            : ПрогрессивнаяМетод сжатия                             : С потерямиБит/(Пиксели*Кадры)                      : 0.264Размер потока                            : 590 Мбайт (90%)Библиотека кодирования                   : XviD 73АудиоИдентификатор                            : 1Формат                                   : AC-3Формат/Информация                        : Audio Coding 3Расширение режима                        : CM (complete main)Параметр Endianness формата              : BigИдентификатор кодека                     : 2000Продолжительность                        : 43 м.Вид битрейта                             : ПостоянныйБитрейт                                  : 192 Кбит/секКаналы                                   : 2 каналаРасположение каналов                     : Front: L RЧастота                                  : 48,0 КГцЧастота кадров                           : 31,250 кадров/сек (1536 spf)Метод сжатия                             : С потерямиРазмер потока                            : 59,7 Мбайт (9%)Выравнивание                             : Разделение по промежуткамПродолжительность промежутка             : 40  мс. (1,00 видеокадр)Время предзагрузки промежутка            : 500  мс.

To download the content you need:
1. Download and install torrent client [for Windows] or for mobile system
2. Click on [Download]
Attention.
If the test YOU are NOT a ROBOT - does not work, then You are using an outdated browser.
Install the current browser and click on [Download]
Security: torrent client is allowed by Kaspersky.

[en.asmlocator.ru].t604375.torrent 
Torrent: Registered [ 2019-02-01 09:45 ] · 46384DE2FC0AEAC69679C702594109C5ECF17793

Download .torrent

Download

14 KB

Status: checked
Completed: 0 times
Size: 1.28 GB
terms.php
[Profile] [PM]
Display posts:    
Reply to topic

Current time is: 11-Dec 05:30

All times are UTC ± 0



You cannot post new topics in this forum
You cannot reply to topics in this forum
You cannot edit your posts in this forum
You cannot delete your posts in this forum
You cannot vote in polls in this forum
You cannot attach files in this forum
You can download files in this forum
Верим фактам, а не вранью Путина! Факт, что Правительство ведёт Россию к истреблению.
Так как численность населения падает, даже не смотря на приток эмигрантов!
Русская нация вымирает и вырождается, смешиваясь с эмигрантами!
Факт, что военных и граждан предприятий заставляют голосовать за партию Единая Россия и Путина
ПОД СТРАХОМ УВОЛЬНЕНИЯ!
Нам не нужно Правительство, блокирующее личную жизнь, интернет, нарушающее сохранность данных.
Все эти действия финансируются за счёт народа!