Загадочные убийства: нацисты (6 серий из 6) / Nazi Murder Mysteries [2018, Документальный, история, исследование, HDTVRip]

Reply to topic
DL-List and Torrent activity
Size:  3.91 GB   |    Registered:  10 months 9 days   |    Completed:  1 time

Seeder not seen: 1 month 22 days

 
   
 
 
Author Message

star21 ®

Gender: Female

Longevity: 4 years 1 month

Posts: 551946

Location: Екатеринбург

Post 01-Feb-2019 09:46

[Quote]

Загадочные убийства: нацисты (6 серий из 6) / Nazi Murder Mysteries Дата/Год выпуска: 2018
Страна: Великобритания
Жанр: Документальный, история, исследование
Продолжительность: 6 х ~ 00:44:17
Перевод: Студийный (одноголосый закадровый)
Доп. инфо о переводе: компания «SDI Media»Телеканал: Viasat HistoryОписание: Рассказ о самых шокирующих убийствах, связанных с нацистами. В каждой серии вас ждут интервью и реконструкции, которые рассказывают о другой стороне периода истории, который казался вам знакомым.Доп. информация: Авторство релиза - alf62
качество: HDTVRip
формат: AVI
Видео: 720x400 (1.80:1), 25 fps, XviD build 73 ~1899 kbps avg, 0.26 bit/pixel
Аудио: 48 kHz, AC3 Dolby Digital, 2/0 (L,R) ch, ~192.00 kbps avg

Список выпусков/серий

1. Племянница Гитлера / Hitler's Niece
Поспешное расследование смерти племянницы Гитлера Гели Раубаль закончилось выводом о суициде. Покончила ли она с собой или пала жертвой властной привязанности Гитлера?2. Герцог Виндзорский / The Duke of Windsor
Мы изучаем слухи, которые обвиняют герцога Виндзора в участии в финансовых схемах, связанных с отмыванием денег нацистов и влиянием на исход процесса об убийстве в 1943 году бизнесмена сэра Гарри Оукса на Багамских островах, когда герцог Виндзорский был там губернатором.3. Берлинский серийный убийца / A Serial Killer in Berlin
Реальная история о том, как берлинский отдел расследования убийств столкнулся с нацистской идеологией, которая мешала расследованию и позволила маньяку ускользнуть.4. Кто спрятал тело Беллы в старый вяз? / Who Put Bella in the Wych Elm
Это мрачная история скелета неизвестной, найденного в полом дереве в окрестностях Бирмингема, исследующая связи между женщиной и нацистскими шпионскими организациями, действующими в Британии. Мы узнаем, что из архива пропали и останки и полицейское досье.5. Герман Геринг / Hermann Goering
В 1946 году Герман Геринг, один из самых влиятельных деятелей в нацистской Германии, был приговорен к смертной казни через повешение в Нюрнберге. В этом эпизоде мы исследуем теории, окружающие его смерть. Неужели все время до казни он носил с собой яд, скрывая его от частых и тщательных проверок, проводимых тюремными охранниками? Или он получил его от тех людей, которые должны были его охранять?6. Рудольф Гесс / Rudolf Hess
1941 год: Рудольф Гесс, правая рука Гитлера, совершает аварийную посадку на Северо-Шотландском нагорье. Зачем он прилетел, и правда ли он сам лишил себя жизни в тюрьме Шпандау?

MediaInfo

ОбщееПолное имя                               : D:\Запись\Загадочные убийства\Nazi.Murder.Mysteries.2018.XviD.HDTVRip.alf62\1.Племянница.Гитлера.2018.XviD.HDTVRip.alf62.aviФормат                                   : AVIФормат/Информация                        : Audio Video InterleaveРазмер файла                             : 666 МбайтПродолжительность                        : 44 м.Общий поток                              : 2102 Кбит/секПрограмма кодирования                    : VirtualDubMod 1.5.10.3 | www.virtualdub-fr.org || (build 2550/release)Библиотека кодирования                   : VirtualDubMod build 2550/releaseВидеоИдентификатор                            : 0Формат                                   : MPEG-4 VisualПрофиль формата                          : Advanced Simple@L5Параметр BVOP формата                    : 2Параметр QPel формата                    : НетПараметр GMC формата                     : Без точки переходаПараметр матрицы формата                 : Default (MPEG)Идентификатор кодека                     : XVIDИдентификатор кодека/Подсказка           : XviDПродолжительность                        : 44 м.Битрейт                                  : 1900 Кбит/секШирина                                   : 720 пикселейВысота                                   : 400 пикселейСоотношение сторон                       : 16:9Частота кадров                           : 25,000 кадров/секЦветовое пространство                    : YUVСубдискретизация насыщенности            : 4:2:0Битовая глубина                          : 8 битТип развёртки                            : ПрогрессивнаяМетод сжатия                             : С потерямиБит/(Пиксели*Кадры)                      : 0.264Размер потока                            : 602 Мбайт (90%)Библиотека кодирования                   : XviD 73АудиоИдентификатор                            : 1Формат                                   : AC-3Формат/Информация                        : Audio Coding 3Расширение режима                        : CM (complete main)Параметр Endianness формата              : BigИдентификатор кодека                     : 2000Продолжительность                        : 44 м.Вид битрейта                             : ПостоянныйБитрейт                                  : 192 Кбит/секКаналы                                   : 2 каналаРасположение каналов                     : Front: L RЧастота                                  : 48,0 КГцЧастота кадров                           : 31,250 кадров/сек (1536 spf)Метод сжатия                             : С потерямиРазмер потока                            : 60,8 Мбайт (9%)Выравнивание                             : Разделение по промежуткамПродолжительность промежутка             : 40  мс. (1,00 видеокадр)Время предзагрузки промежутка            : 500  мс.

Скриншоты

To download the content you need:
1. Download and install torrent client [for Windows] or for mobile system
2. Click on [Download]
Attention.
If the test YOU are NOT a ROBOT - does not work, then You are using an outdated browser.
Install the current browser and click on [Download]
Security: torrent client is allowed by Kaspersky.

[en.asmlocator.ru].t604365.torrent 
Torrent: Registered [ 2019-02-01 09:45 ] · 20E75254C48216479E49CB9AEB86C7286AA07E1F

Download .torrent

Download

21 KB

Status: checked
Completed: 1 times
Size: 3.91 GB
terms.php
[Profile] [PM]
Display posts:    
Reply to topic

Current time is: 11-Dec 06:30

All times are UTC ± 0



You cannot post new topics in this forum
You cannot reply to topics in this forum
You cannot edit your posts in this forum
You cannot delete your posts in this forum
You cannot vote in polls in this forum
You cannot attach files in this forum
You can download files in this forum
Верим фактам, а не вранью Путина! Факт, что Правительство ведёт Россию к истреблению.
Так как численность населения падает, даже не смотря на приток эмигрантов!
Русская нация вымирает и вырождается, смешиваясь с эмигрантами!
Факт, что военных и граждан предприятий заставляют голосовать за партию Единая Россия и Путина
ПОД СТРАХОМ УВОЛЬНЕНИЯ!
Нам не нужно Правительство, блокирующее личную жизнь, интернет, нарушающее сохранность данных.
Все эти действия финансируются за счёт народа!