Форелевое хозяйство (Сергей Дудкин) [2009, научно-познавательный, TVRip]

Reply to topic
DL-List and Torrent activity
Size:  248 MB   |    Registered:  1 year 9 months   |    Completed:  0 times

Seeder not seen: 4 months 7 days

 
   
 
 
Author Message

star21 ®

Gender: Female

Longevity: 4 years 3 months

Posts: 551946

Location: Екатеринбург

Post 02-May-2018 15:20

[Quote]

Форелевое хозяйство Дата/Год выпуска: 2009
Страна: Россия
Жанр: научно-познавательный
Продолжительность: 00:24:57
Перевод: Не требуется
Русские субтитры: нет
Оригинальная аудиодорожка: русский
Режиссер: Сергей Дудкин
Телеканал: RTG TVОписание: Эта форелевая ферма расположилась у подножья Главного Кавказского хребта в поселке Казачий Брод в 30 км от города Сочи. История этого хозяйства началась в 1963 году. В ту пору город Сочи был главной здравницей Советского Союза. Первые 2 млн. оплодотворенных икринок были завезены сюда из Дании. Сегодня на ферме обитает тридцать тысяч самок и три с половиной тысячи самцов. В хозяйстве выращивают две уникальные породы - это Адлер и Адлерская янтарная, и выведены они были именно здесь. В первый раз в искусственной среде форель начинает нереститься к двум годам. Период нереста - с сентября по март. В течение одной программы вы можете увидеть весь цикл выращивания форели: от икринки до зрелой особикачество: TVRip
формат: AVI
Видео: MPEG4, XviD, 704x528 (4:3), 25.000 fps, 1 254 Kbps (0.135 bit/pixel)
Аудио: MP3, 48.0 KHz, 2 ch, 128 Kbps, CBR

MediaInfo

GeneralComplete name                            : C:\Users\User\Downloads\Форелевое хозяйство.aviFormat                                   : AVIFormat/Info                              : Audio Video InterleaveFile size                                : 248 MiBDuration                                 : 24mn 57sOverall bit rate                         : 1 392 KbpsWriting application                      : VirtualDubMod 1.5.10.2 (build 2540/release)Writing library                          : VirtualDubMod build 2540/releaseVideoID                                       : 0Format                                   : MPEG-4 VisualFormat profile                           : Advanced Simple@L5Format settings, BVOP                    : 1Format settings, QPel                    : NoFormat settings, GMC                     : No warppointsFormat settings, Matrix                  : Default (MPEG)Codec ID                                 : XVIDCodec ID/Hint                            : XviDDuration                                 : 24mn 57sBit rate                                 : 1 254 KbpsWidth                                    : 704 pixelsHeight                                   : 528 pixelsDisplay aspect ratio                     : 4:3Frame rate                               : 25.000 fpsColor space                              : YUVChroma subsampling                       : 4:2:0Bit depth                                : 8 bitsScan type                                : ProgressiveCompression mode                         : LossyBits/(Pixel*Frame)                       : 0.135Stream size                              : 224 MiB (90%)Writing library                          : XviD 1.2.1 (UTC 2008-12-04)AudioID                                       : 1Format                                   : MPEG AudioFormat version                           : Version 1Format profile                           : Layer 3Codec ID                                 : 55Codec ID/Hint                            : MP3Duration                                 : 24mn 57sBit rate mode                            : ConstantBit rate                                 : 128 KbpsChannel(s)                               : 2 channelsSampling rate                            : 48.0 KHzCompression mode                         : LossyStream size                              : 22.9 MiB (9%)Alignment                                : Aligned on interleavesInterleave, duration                     : 40 ms (1.00 video frame)Interleave, preload duration             : 504 msWriting library                          : LAME3.98rEncoding settings                        : -m s -V 4 -q 2 -lowpass 17 -b 128

Скриншоты

To download the content you need:
1. Download and install torrent client [for Windows] or for mobile system
2. Click on [Download]
Attention.
If the test YOU are NOT a ROBOT - does not work, then You are using an outdated browser.
Install the current browser and click on [Download]
Security: torrent client is allowed by Kaspersky.

[en.asmlocator.ru].t528162.torrent 
Torrent: Registered [ 2018-05-02 15:20 ] · 540A29E85DB6B85E56A1FB14AB8402E61748CA30

Download .torrent

Download

20 KB

Status: checked
Completed: 0 times
Size: 248 MB
terms.php
[Profile] [PM]
Display posts:    
Reply to topic

Current time is: 27-Feb 07:07

All times are UTC ± 0



You cannot post new topics in this forum
You cannot reply to topics in this forum
You cannot edit your posts in this forum
You cannot delete your posts in this forum
You cannot vote in polls in this forum
You cannot attach files in this forum
You can download files in this forum
Верим фактам, а не вранью Путина! Факт, что Правительство ведёт Россию к истреблению.
Так как численность населения падает, даже не смотря на приток эмигрантов!
Русская нация вымирает и вырождается, смешиваясь с эмигрантами!
Факт, что военных и граждан предприятий заставляют голосовать за партию Единая Россия и Путина
ПОД СТРАХОМ УВОЛЬНЕНИЯ!
Нам не нужно Правительство, блокирующее личную жизнь, интернет, нарушающее сохранность данных.
Все эти действия финансируются за счёт народа!