Мемориальный музей-квартира А.С. Пушкина (Сергей Дудкин, Серегей Протасов) [2011, культура и искусство, SATRip]

Reply to topic
DL-List and Torrent activity
Size:  270 MB   |    Registered:  1 year 9 months   |    Completed:  1 time

Seeder not seen: 4 months 3 days

 
   
 
 
Author Message

star21 ®

Gender: Female

Longevity: 4 years 3 months

Posts: 551946

Location: Екатеринбург

Post 02-May-2018 15:20

[Quote]

Мемориальный музей-квартира А.С. Пушкина Дата/Год выпуска: 2011
Страна: Россия
Жанр: культура и искусство
Продолжительность: 00:21:59
Перевод: Не требуется
Русские субтитры: нет
Оригинальная аудиодорожка: русский
Режиссер: Сергей Дудкин, Серегей Протасов
Телеканал: RTG TVОписание: Когда через небольшую калитку заходишь во двор старинного особняка на набережной реки Мойка, как будто бы переносишься в 19 век. В сентябре 1836 года здесь поселился великий русский поэт Александр Пушкин. Эта квартира стала последним местом его проживания в Петербурге. Отсюда он 27 января 1837 года отправился на роковую дуэль с Дантесом, сюда же был доставлен после нее с тяжелым ранением. Мемориальная квартира полна интересных экспонатов, здесь все воссоздано в первоначальном облике, так, как было при Пушкиных: любимый диван поэта, полки с книгами на разных языках, вещи его детей, портрет его жены... По воспоминаниям друзей Александра Сергеевича, квартира на Мойке была одним из немногих мест, где Пушкин был по-человечески абсолютно счастлив.качество: SATRip
формат: AVI
Видео: MPEG4, XviD, 704x528 (4:3), 25.000 fps, 1 575 Kbps (0.170 bit/pixel)
Аудио: MP3, 48.0 KHz, 2 ch, 128 Kbps, CBR

MediaInfo

GeneralComplete name                            : C:\Users\User\Downloads\Мемориальный музей-квартира А.С. Пушкина.aviFormat                                   : AVIFormat/Info                              : Audio Video InterleaveFile size                                : 270 MiBDuration                                 : 21mn 59sOverall bit rate                         : 1 713 KbpsWriting application                      : VirtualDubMod 1.5.10.2 (build 2540/release)Writing library                          : VirtualDubMod build 2540/releaseVideoID                                       : 0Format                                   : MPEG-4 VisualFormat profile                           : Advanced Simple@L5Format settings, BVOP                    : 1Format settings, QPel                    : NoFormat settings, GMC                     : No warppointsFormat settings, Matrix                  : Default (MPEG)Codec ID                                 : XVIDCodec ID/Hint                            : XviDDuration                                 : 21mn 59sBit rate                                 : 1 575 KbpsWidth                                    : 704 pixelsHeight                                   : 528 pixelsDisplay aspect ratio                     : 4:3Frame rate                               : 25.000 fpsColor space                              : YUVChroma subsampling                       : 4:2:0Bit depth                                : 8 bitsScan type                                : ProgressiveCompression mode                         : LossyBits/(Pixel*Frame)                       : 0.170Stream size                              : 248 MiB (92%)Writing library                          : XviD 1.2.1 (UTC 2008-12-04)AudioID                                       : 1Format                                   : MPEG AudioFormat version                           : Version 1Format profile                           : Layer 3Codec ID                                 : 55Codec ID/Hint                            : MP3Duration                                 : 21mn 59sBit rate mode                            : ConstantBit rate                                 : 128 KbpsChannel(s)                               : 2 channelsSampling rate                            : 48.0 KHzCompression mode                         : LossyStream size                              : 20.1 MiB (7%)Alignment                                : Aligned on interleavesInterleave, duration                     : 40 ms (1.00 video frame)Interleave, preload duration             : 504 msWriting library                          : LAME3.98rEncoding settings                        : -m s -V 4 -q 2 -lowpass 17 -b 128

Скриншоты

To download the content you need:
1. Download and install torrent client [for Windows] or for mobile system
2. Click on [Download]
Attention.
If the test YOU are NOT a ROBOT - does not work, then You are using an outdated browser.
Install the current browser and click on [Download]
Security: torrent client is allowed by Kaspersky.

[en.asmlocator.ru].t528160.torrent 
Torrent: Registered [ 2018-05-02 15:20 ] · B16C05951941C8BBD9F7D05CFB246A244C19C600

Download .torrent

Download

11 KB

Status: checked
Completed: 1 times
Size: 270 MB
terms.php
[Profile] [PM]
Display posts:    
Reply to topic

Current time is: 23-Feb 08:01

All times are UTC ± 0



You cannot post new topics in this forum
You cannot reply to topics in this forum
You cannot edit your posts in this forum
You cannot delete your posts in this forum
You cannot vote in polls in this forum
You cannot attach files in this forum
You can download files in this forum
Верим фактам, а не вранью Путина! Факт, что Правительство ведёт Россию к истреблению.
Так как численность населения падает, даже не смотря на приток эмигрантов!
Русская нация вымирает и вырождается, смешиваясь с эмигрантами!
Факт, что военных и граждан предприятий заставляют голосовать за партию Единая Россия и Путина
ПОД СТРАХОМ УВОЛЬНЕНИЯ!
Нам не нужно Правительство, блокирующее личную жизнь, интернет, нарушающее сохранность данных.
Все эти действия финансируются за счёт народа!