Саид и Карлсон (К 90-летию Спартака Мишулина) (Вера Травкина, Алексей Яковлев) [2016, Документальный, биография, HDTVRip]

Reply to topic
DL-List and Torrent activity
Size:  679 MB   |    Registered:  1 year 9 months   |    Completed:  0 times

Seeder not seen: 4 months 3 days

 
   
 
 
Author Message

Post 02-May-2018 15:20

Саид и Карлсон (К 90-летию Спартака Мишулина) Дата/Год выпуска: 2016
Страна: Россия, Первый канал
Жанр: Документальный, биография
Продолжительность: 00:49:54
Перевод: Не требуется
Русские субтитры: нетРежиссер: Вера Травкина, Алексей ЯковлевОписание: 22 октября 2016 года Спартаку Мишулину исполнилось бы 90 лет. В память о себе он оставил удивительные роли: исполненный невероятного шарма Карлсон из телеспектакля Театра сатиры, обаятельный пан Директор из телевизионного кабачка "Тринадцать стульев", выразительно лапидарный Саид из "Белого солнца пустыни". Попробуйте произнести лишь одно слово - "Стреляли..." - и перед глазами тут же встаёт лицо человека, которого не спутать ни с кем другим. В нашем фильме мы расскажем о его удивительной судьбе, которая вобрала в себя невыдуманные трагедии и драмы, невостребованную любовь к матери, верность детской мечте, успех у публики, легенды и мистику, сопровождавшую актёра всю его жизнь. Как, например, "Чёрная дама". Впервые она явилась Спартаку, когда тот был подростком, тосковал о материнском тепле и участии и переполнявшие его эмоции решил излить на бумаге. Тогда-то из-за шкафа появилась Она и произнесла свое предсказание... Кто же была та "Дама в чёрном"? И что она предсказала? В фильме приняли участие: Валентина Мишулина - вдова С.В. Мишулина, Карина Мишулина - дочь С.В. Мишулина, Александр Ширвиндт - художественный руководитель Театра сатиры, Владимир Коренев - актёр, друг С.В. Мишулина, Валентина Шарыкина - актриса, партнёрша по "Кабачку 13 стульев", Николай Конюшев - режиссёр, ассистент по актёрам "Белого солнца пустыни", Алёна Яковлева - актриса, друг семьи, Владимир Константинов - шурин С.В. Мишулина.качество: HDTVRip
формат: AVI
Видео: XviD, 1700 Кбит/с, 720x400
Аудио: AC3, 2 ch, 192 Кбит/с

MediaInfo

Полное имя                               : D:\gotov\Саид и Карлсон.2016.HDTVRip.aviФормат                                   : AVIФормат/Информация                        : Audio Video InterleaveРазмер файла                             : 679 МбайтПродолжительность                        : 49 м. 54 с.Общий поток                              : 1902 Кбит/секПрограмма кодирования                    : VirtualDubMod 1.5.10.3 | www.virtualdub-fr.org || (build 2550/release)Библиотека кодирования                   : VirtualDubMod build 2550/releaseВидеоИдентификатор                            : 0Формат                                   : MPEG-4 VisualПрофиль формата                          : Advanced Simple@L5Параметр BVOP формата                    : 2Параметр QPel формата                    : НетПараметр GMC формата                     : Без точки переходаПараметр матрицы формата                 : Default (MPEG)Идентификатор кодека                     : XVIDИдентификатор кодека/Подсказка           : XviDПродолжительность                        : 49 м. 54 с.Битрейт                                  : 1700 Кбит/секШирина                                   : 720 пикселейВысота                                   : 400 пикселейСоотношение сторон                       : 16:9Частота кадров                           : 25,000 кадров/секЦветовое пространство                    : YUVСубдискретизация насыщенности            : 4:2:0Битовая глубина                          : 8 битТип развёртки                            : ПрогрессивнаяМетод сжатия                             : С потерямиБит/(Пиксели*Кадры)                      : 0.236Размер потока                            : 607 Мбайт (89%)Библиотека кодирования                   : XviD 73АудиоИдентификатор                            : 1Формат                                   : AC-3Формат/Информация                        : Audio Coding 3Расширение режима                        : CM (complete main)Параметр Endianness формата              : BigИдентификатор кодека                     : 2000Продолжительность                        : 49 м. 54 с.Вид битрейта                             : ПостоянныйБитрейт                                  : 192 Кбит/секКаналы                                   : 2 каналаРасположение каналов                     : Front: L RЧастота                                  : 48,0 КГцЧастота кадров                           : 31,250 кадров/сек (1536 spf)Метод сжатия                             : С потерямиРазмер потока                            : 68,5 Мбайт (10%)Выравнивание                             : Разделение по промежуткамПродолжительность промежутка             : 40  мс. (1,00 видеокадр)Время предзагрузки промежутка            : 500  мс.

Скриншоты

To download the content you need:
1. Download and install torrent client [for Windows] or for mobile system
2. Click on [Download]
Attention.
If the test YOU are NOT a ROBOT - does not work, then You are using an outdated browser.
Install the current browser and click on [Download]
Security: torrent client is allowed by Kaspersky.

[en.asmlocator.ru].t528159.torrent 
Torrent: Registered [ 2018-05-02 15:20 ] · AF56E95E96867A47AA88017220EBCFEA16E5EA1B

Download .torrent

Download

7 KB

Status: checked
Completed: 0 times
Size: 679 MB
terms.php
 
Display posts:    
Reply to topic

Current time is: 23-Feb 07:51

All times are UTC ± 0



You cannot post new topics in this forum
You cannot reply to topics in this forum
You cannot edit your posts in this forum
You cannot delete your posts in this forum
You cannot vote in polls in this forum
You cannot attach files in this forum
You can download files in this forum
Верим фактам, а не вранью Путина! Факт, что Правительство ведёт Россию к истреблению.
Так как численность населения падает, даже не смотря на приток эмигрантов!
Русская нация вымирает и вырождается, смешиваясь с эмигрантами!
Факт, что военных и граждан предприятий заставляют голосовать за партию Единая Россия и Путина
ПОД СТРАХОМ УВОЛЬНЕНИЯ!
Нам не нужно Правительство, блокирующее личную жизнь, интернет, нарушающее сохранность данных.
Все эти действия финансируются за счёт народа!