Патруль / End of Watch (Дэвид Эйр / David Ayer) [2012, США, триллер, драма, криминал, HDRip] [USA Transfer] AVO (Гаврилов)

Reply to topic
DL-List and Torrent activity
Size:  1.45 GB   |    Registered:  1 year 9 months   |    Completed:  0 times

Seeder not seen: Never

 
   
 
 
Author Message

star21 ®

Gender: Female

Longevity: 4 years 3 months

Posts: 551946

Location: Екатеринбург

Post 02-May-2018 15:20

[Quote]

Патруль / End of Watch Страна: США
Жанр: триллер, драма, криминал
Год выпуска: 2012
Продолжительность: 01:49:17Перевод: Авторский (одноголосый закадровый) Андрей Гаврилов
Субтитры: нет
Оригинальная аудиодорожка: нетРежиссер: Дэвид Эйр / David AyerВ ролях: Джейк Джилленхол, Майкл Пенья, Анна Кендрик, Натали Мартинез, Америка Феррера, Фрэнк Грилло, Дэвид Харбор, Кле Шахид Слоун, Джейм Фицсаймонс, Коуди Хорн, Шондрелла Эйвери, Эвертон Лоуренс, Ликвид 'Дэвил' Уилкенс, Джеймс 'Пистол' МакНил, Зоун, Элвин Норман, Ричард Кебрал, Дьямоник, Морис Комт, Яхира Гарсиа, Мэнни Хименез мл., Николь Баррерас, Майкл Монкс, Хью Дэйли, Кристи Ву, Дэвид Кастанеда, Кендес Смит, Рамон Камачо, Кевин Вэнс, Корина Калдерон, Дэвид Фернандез, Нелли Кастилло, МакКинли Фриман, Джон А. Руссо, Том СпенсерОписание: Лос-Анджелес. На первый взгляд это самый обычный город, живущий своей жизнью. А вот если копнуть глубже, туда, где обитают преступные группировки и криминальные общины, понимаешь, как сложна работа тамошних полицейских. О таких бравых ребятах, служащих закону и заботящихся о порядке на улицах города, и пойдет речь. Перед нами двое неразлучных товарищей-копов. Эти ребята дорожат своей дружбой и готовы подставить друг другу плечо помощи в любую минуту. Нечасто случается, чтобы напарники были лучшими друзьями. Героям сопутствует успех в делах, они настоящие профессионалы в своем нелегком деле. И надо же было такому случится, что во время патрулирования одного из самых преступных районов Лос-Анджелеса они попадают в водоворот страшных криминальных событий...Доп. информация:

Рип от Scarabey, исходник - BDRip 1080p USA TransferСэмпл: http://multi-up.com/1196877Качество видео: HDRip
Формат видео: AVIВидео: XviD; 704x384 (1,85:1); 1447 Kbps; 23,976 fps; 0,223 bit/pixel
Аудио: AC3; 48 kHz, 448 Kbps; CBR; 6 ch

MediaInfo

Общее
Полное имя : End.of.Watch.2012.HDRip.Gavrilov.lumpeN.avi
Формат : AVI
Формат/Информация : Audio Video Interleave
Размер файла : 1,45 Гбайт
Продолжительность : 1 ч. 49 м.
Общий поток : 1904 Кбит/сек
Название фильма : lumpeN
Программа кодирования : VirtualDubMod 1.5.10.3 | www.virtualdub-fr.org || (build 2550/release)
Библиотека кодирования : VirtualDubMod build 2550/releaseВидео
Идентификатор : 0
Формат : MPEG-4 Visual
Профиль формата : Advanced Simple@L5
Настройки формата : BVOP1 / Custom Matrix
Параметр BVOP формата : 1
Параметр QPel формата : Нет
Параметр GMC формата : Без точки перехода
Параметр матрицы формата : Выборочная
Идентификатор кодека : XVID
Идентификатор кодека/Подсказка : XviD
Продолжительность : 1 ч. 49 м.
Битрейт : 1447 Кбит/сек
Ширина : 704 пикселя
Высота : 384 пикселя
Соотношение сторон : 1,85:1
Частота кадров : 23,976 (24000/1001) кадра/сек
Цветовое пространство : YUV
Субдискретизация насыщенности : 4:2:0
Битовая глубина : 8 бит
Тип развёртки : Прогрессивная
Метод сжатия : С потерями
Бит/(Пиксели*Кадры) : 0.223
Размер потока : 1,10 Гбайт (76%)
Библиотека кодирования : XviD 1.2.1 (UTC 2008-12-04)Аудио
Идентификатор : 1
Формат : AC-3
Формат/Информация : Audio Coding 3
Идентификатор кодека : 2000
Продолжительность : 1 ч. 49 м.
Вид битрейта : Постоянный
Битрейт : 448 Кбит/сек
Каналы : 6 каналов
Расположение каналов : Front: L C R, Side: L R, LFE
Частота : 48,0 КГц
Частота кадров : 31,250 кадров/сек (1536 SPF)
Битовая глубина : 16 бит
Метод сжатия : С потерями
Размер потока : 350 Мбайт (24%)
Выравнивание : Разделение по промежуткам
Продолжительность промежутка : 42 мс. (1,00 видеокадр)
Время предзагрузки промежутка : 500 мс.
Заголовок : Gavrilov
ServiceKind/String : Complete Main

Скриншоты

To download the content you need:
1. Download and install torrent client [for Windows] or for mobile system
2. Click on [Download]
Attention.
If the test YOU are NOT a ROBOT - does not work, then You are using an outdated browser.
Install the current browser and click on [Download]
Security: torrent client is allowed by Kaspersky.

[en.asmlocator.ru].t528157.torrent 
Torrent: Registered [ 2018-05-02 15:20 ] · C7DC07A1FF0CC9EC4F2115A6EE9AEFD149048A4D

Download .torrent

Download

15 KB

Status: checked
Completed: 0 times
Size: 1.45 GB
terms.php
[Profile] [PM]
Display posts:    
Reply to topic

Current time is: 23-Feb 06:46

All times are UTC ± 0



You cannot post new topics in this forum
You cannot reply to topics in this forum
You cannot edit your posts in this forum
You cannot delete your posts in this forum
You cannot vote in polls in this forum
You cannot attach files in this forum
You can download files in this forum
Верим фактам, а не вранью Путина! Факт, что Правительство ведёт Россию к истреблению.
Так как численность населения падает, даже не смотря на приток эмигрантов!
Русская нация вымирает и вырождается, смешиваясь с эмигрантами!
Факт, что военных и граждан предприятий заставляют голосовать за партию Единая Россия и Путина
ПОД СТРАХОМ УВОЛЬНЕНИЯ!
Нам не нужно Правительство, блокирующее личную жизнь, интернет, нарушающее сохранность данных.
Все эти действия финансируются за счёт народа!