(Pop, Soul, R\'n\'B) [CD] Tom Jones - Mr. Jones - 2002 (2003), FLAC (image+.cue), lossless

Reply to topic
DL-List and Torrent activity
Size:  298 MB   |    Registered:  1 year 9 months   |    Completed:  0 times

Seeder not seen: 1 year

 
   
 
 
Author Message

star21 ®

Gender: Female

Longevity: 4 years 3 months

Posts: 551946

Location: Екатеринбург

Post 02-May-2018 12:55

[Quote]

Tom Jones - Mr. Jones Жанр: Pop, Soul, R'n'B
Носитель: CD
Страна-производитель диска (релиза): RU (Unofficial Release)
Год издания: 2003
Издатель (лейбл): Decca Records
Номер по каталогу: 30642 8
Страна исполнителя (группы): UK
Аудиокодек: FLAC (*.flac)
Тип рипа: image+.cue
Битрейт аудио: lossless
Продолжительность: 00:44:47
Источник (релизер): poinvagina
Наличие сканов в содержимом раздачи: даТреклист:01. Tom Jones International 03:20
02. Younger Days 05:24
03. Holiday 03:30
04. Whatever It Takes 04:00
05. Heavens Been A Long Tome Comin' 03:27
06. Black Betty 03:11
07. Jezebel 03:59
08. The Letter 03:48
09. This Is My Life 03:31
10. We've Got Tonight 03:35
11. Feel The Rain 03:26
12. I Who Have Nothing (Remix) 03:42

Лог создания рипа

Exact Audio Copy V1.1 from 23. June 2015Отчёт EAC об извлечении, выполненном 23. апреля 2018, 14:32Tom Jones / Mr. JonesДисковод: PIONEER DVD-RW  DVR-221L   Adapter: 1  ID: 0Режим чтения                 : ДостоверностьИспользование точного потока : ДаОтключение кэша аудио        : ДаИспользование указателей C2  : НетКоррекция смещения при чтении                     : 6Способность читать области Lead-in и Lead-out     : НетЗаполнение пропущенных сэмплов тишиной            : ДаУдаление блоков с тишиной в начале и конце        : НетПри вычислениях CRC использовались нулевые сэмплы : ДаИнтерфейс                                         : Встроенный Win32-интерфейс для Win NT/2000Выходной формат          : Пользовательский кодировщикВыбранный битрейт        : 896 kBit/sКачество                 : ВысокийДобавление ID3-тега      : НетУтилита сжатия           : C:\Program Files\Exact Audio Copy\Flac\flac.exeДополнительные параметры : -V -8 -T "Date=%year%" -T "Genre=%genre%" %source%TOC извлечённого CD     Трек |   Старт  | Длительность | Начальный сектор | Конечный сектор    ---------------------------------------------------------------------       1  |  0:00.00 |    3:19.47   |           0      |      14971       2  |  3:19.47 |    5:23.41   |       14972      |      39237       3  |  8:43.13 |    3:29.68   |       39238      |      54980       4  | 12:13.06 |    3:59.50   |       54981      |      72955       5  | 16:12.56 |    3:26.63   |       72956      |      88468       6  | 19:39.44 |    3:10.54   |       88469      |     102772       7  | 22:50.23 |    3:58.71   |      102773      |     120693       8  | 26:49.19 |    3:48.05   |      120694      |     137798       9  | 30:37.24 |    3:30.57   |      137799      |     153605      10  | 34:08.06 |    3:35.19   |      153606      |     169749      11  | 37:43.25 |    3:23.05   |      169750      |     184979      12  | 41:06.30 |    3:41.42   |      184980      |     201596Характеристики диапазона извлечения и сообщения об ошибкахВыбранный диапазон     Имя файла C:\0\!MUSIC-EAC\Tom Jones - Mr. Jones.wav     Пиковый уровень 100.0 %     Скорость извлечения 7.0 X     Качество диапазона 100.0 %     CRC теста 53270E6B     CRC копии 53270E6B     Копирование... OKОшибок не произошлоAccurateRip: сводкаТрек  1  точность не определена (достоверность 1)  [A6C8AA54], AccurateRip вернул [AD77601D]  (AR v2)Трек  2  точность не определена (достоверность 1)  [48971C4A], AccurateRip вернул [7DFC559F]  (AR v2)Трек  3  точность не определена (достоверность 1)  [49DAC73E], AccurateRip вернул [9052D89E]  (AR v2)Трек  4  точность не определена (достоверность 1)  [C5743525], AccurateRip вернул [6B18BFB0]  (AR v2)Трек  5  точность не определена (достоверность 1)  [BB6CE1EF], AccurateRip вернул [35DCEAC8]  (AR v2)Трек  6  точность не определена (достоверность 1)  [5BE057A7], AccurateRip вернул [74C02153]  (AR v2)Трек  7  точность не определена (достоверность 1)  [76BE429A], AccurateRip вернул [72C06698]  (AR v2)Трек  8  точность не определена (достоверность 1)  [033E7E2E], AccurateRip вернул [7AD2542C]  (AR v2)Трек  9  точность не определена (достоверность 1)  [06C6D593], AccurateRip вернул [7FE48F80]  (AR v2)Трек 10  точность не определена (достоверность 1)  [3BB77301], AccurateRip вернул [368870A6]  (AR v2)Трек 11  точность не определена (достоверность 1)  [936F0974], AccurateRip вернул [DB31159D]  (AR v2)Трек 12  точность не определена (достоверность 1)  [DC52A3E1], AccurateRip вернул [8804AB07]  (AR v2)Ни один трек не прошёл проверки на точностьВ вашей базе может быть иной вариант штамповки дискаКонец отчёта==== Контрольная сумма отчёта FDAFE70E975526F10CF300AB7A5BF516BEC60FC66831A99AD08A49B4712D2E53 ====

Содержание индексной карты (.CUE)

REM GENRE "Pop, Rock : Pop Rock, Ballad"REM DATE 2002REM DISCID 940A7F0CREM COMMENT "ExactAudioCopy v1.1"CATALOG 0000000000000PERFORMER "Tom Jones"TITLE "Mr. Jones"FILE "Tom Jones - Mr. Jones.flac" WAVE  TRACK 01 AUDIO    TITLE "Tom Jones International"    PERFORMER "Tom Jones"    INDEX 01 00:00:00  TRACK 02 AUDIO    TITLE "Younger Days"    PERFORMER "Tom Jones"    INDEX 01 03:19:47  TRACK 03 AUDIO    TITLE "Holiday"    PERFORMER "Tom Jones"    INDEX 01 08:43:13  TRACK 04 AUDIO    TITLE "Whatever It Takes"    PERFORMER "Tom Jones"    INDEX 01 12:13:06  TRACK 05 AUDIO    TITLE "Heavens Been A Long Time Comin'"    PERFORMER "Tom Jones"    INDEX 01 16:12:56  TRACK 06 AUDIO    TITLE "Black Betty"    PERFORMER "Tom Jones"    INDEX 01 19:39:44  TRACK 07 AUDIO    TITLE "Jezebel"    PERFORMER "Tom Jones"    INDEX 01 22:50:23  TRACK 08 AUDIO    TITLE "The Letter"    PERFORMER "Tom Jones"    INDEX 01 26:49:19  TRACK 09 AUDIO    TITLE "This Is My Life"    PERFORMER "Tom Jones"    INDEX 01 30:37:24  TRACK 10 AUDIO    TITLE "We've Got Tonight"    PERFORMER "Tom Jones"    INDEX 01 34:08:06  TRACK 11 AUDIO    TITLE "Feel The Rain"    PERFORMER "Tom Jones"    INDEX 01 37:43:25  TRACK 12 AUDIO    TITLE "I Who Have Nothing"    PERFORMER "Tom Jones"    INDEX 01 41:06:30

Лог проверки качества

-----------------------DON'T MODIFY THIS FILE-----------------------PERFORMER: auCDtect Task Manager, ver. 1.5.1RC4 build 1.5.1.5Copyright (c) 2008-2010 y-soft. All rights reservedhttp://y-soft.orgANALYZER: auCDtect: CD records authenticity detector, version 0.8.2Copyright (c) 2004 Oleg Berngardt. All rights reserved.Copyright (c) 2004 Alexander Djourik. All rights reserved.FILE: Tom Jones - Mr. Jones.flac  Size: 303967116 Hash: F0A0D26F37FB732130B75144CF975C5A Accuracy: -m0  Conclusion: MPEG 95%  Signature: DA6857649E9180BBBD324EBFC0BBBB3A6A241F67

DR log

foobar2000 1.3.12 / Dynamic Range Meter 1.1.1log date: 2018-04-23 14:41:05--------------------------------------------------------------------------------Analyzed: Tom Jones / Mr. Jones--------------------------------------------------------------------------------DR         Peak         RMS     Duration Track--------------------------------------------------------------------------------DR7        0.00 dB    -8.23 dB      3:20 01-Tom Jones InternationalDR9        0.00 dB    -9.97 dB      5:24 02-Younger DaysDR7        0.00 dB    -8.40 dB      3:30 03-HolidayDR8        0.00 dB    -9.24 dB      4:00 04-Whatever It TakesDR8        0.00 dB   -10.24 dB      3:27 05-Heavens Been A Long Time Comin'DR8        0.00 dB    -9.35 dB      3:11 06-Black BettyDR7        0.00 dB    -8.69 dB      3:59 07-JezebelDR7        0.00 dB    -8.48 dB      3:48 08-The LetterDR8        0.00 dB    -9.61 dB      3:31 09-This Is My LifeDR6        0.00 dB    -7.90 dB      3:35 10-We've Got TonightDR6        0.00 dB    -8.01 dB      3:23 11-Feel The RainDR6        0.00 dB    -7.35 dB      3:42 12-I Who Have Nothing--------------------------------------------------------------------------------Number of tracks:  12Official DR value: DR7Samplerate:        44100 HzChannels:          2Bits per sample:   16Bitrate:           904 kbpsCodec:             FLAC================================================================================
Доп. информация

Состав

Tom Jones - Vocals
Ken Williams - Vocals
Keith Airey - Guitar
Teflon - Keyboards
Raul Agraz - Trumpet
John Walsh - Trumpet
Clark Gayton - Trombone
Robert Aaron - Horn Arrangements, Sax (Baritone), Sax (Tenor), Saxophone
Curtis King - Vocals, Vocals (Background)
Alfonso Thornton - Vocals, Vocals (Background)
Dennis Collins - Vocals, Vocals (Background)
Shelton Becton - Vocals (Background)
Governor - Vocals (Background)
Melky Jean - Vocals (Background)

Об исполнителе (группе)

At age 62, Tom Jones is, in a sense, making a comeback with each new recording. That is certainly the case with Mr. Jones, on which he puts himself in the hands of producers Wyclef Jean and Jerry Duplessis. Jones has never minded being the mouthpiece of a producer or two, confident enough in his own persona to stretch to meet different styles. Here, he collaborates with his partners, co-writing many of the songs. And the trio isn't afraid to take on the Jones' legend directly, starting with the lead-off track, "Tom Jones International," which even finds the singer rapping -- well, sort of -- in a dance-friendly paean to himself. The self-referential tone continues with "Younger Days," a reminiscence about the past when Jones was a star, that ends up declaring that he's still got it. The rest of the album is a demonstration of that claim, as Jean and Duplessis provide the rhythmic instrumental tracks and Jones is his usual emphatic self. The originals are augmented by well-chosen covers, including a version of Leadbelly's "Black Betty" that features a sample of the folk-blues singer and a cover of Bob Seger's "We've Got Tonight." Finally, Jones closes as he started, by paying tribute to himself (and even sampling himself) on a remake of "I Who Have Nothing," a song he first recorded in 1970. Along with Jean and Duplessis, Jones seems to realize that the key to reinventing himself is to evoke his heyday and set it to contemporary beats.https://www.allmusic.com/album/mr-jones-mw0000457994
https://en.wikipedia.org/wiki/Mr._Jones_(Tom_Jones_album)
https://en.wikipedia.org/wiki/Tom_Jones_(singer)
http://www.tomjones.com

To download the content you need:
1. Download and install torrent client [for Windows] or for mobile system
2. Click on [Download]
Attention.
If the test YOU are NOT a ROBOT - does not work, then You are using an outdated browser.
Install the current browser and click on [Download]
Security: torrent client is allowed by Kaspersky.

[en.asmlocator.ru].t528124.torrent 
Torrent: Registered [ 2018-05-02 12:55 ] · E48A23DDF00A3BDDB2609A469A21ADB52CC5EB97

Download .torrent

Download

13 KB

Status: checked
Completed: 0 times
Size: 298 MB
terms.php
[Profile] [PM]
Display posts:    
Reply to topic

Current time is: 23-Feb 06:48

All times are UTC ± 0



You cannot post new topics in this forum
You cannot reply to topics in this forum
You cannot edit your posts in this forum
You cannot delete your posts in this forum
You cannot vote in polls in this forum
You cannot attach files in this forum
You can download files in this forum
Верим фактам, а не вранью Путина! Факт, что Правительство ведёт Россию к истреблению.
Так как численность населения падает, даже не смотря на приток эмигрантов!
Русская нация вымирает и вырождается, смешиваясь с эмигрантами!
Факт, что военных и граждан предприятий заставляют голосовать за партию Единая Россия и Путина
ПОД СТРАХОМ УВОЛЬНЕНИЯ!
Нам не нужно Правительство, блокирующее личную жизнь, интернет, нарушающее сохранность данных.
Все эти действия финансируются за счёт народа!