Маска смерти / Mask of Death (Дэвид Митчелл / David Mitchell) [1996, США, Канада, боевик, DVDRip] AVO (Андрей Гаврилов)

Reply to topic
DL-List and Torrent activity
Size:  1.4 GB   |    Registered:  4 years 3 months   |    Completed:  0 times

Seeder not seen: Never

 
   
 
 
Author Message

star21 ®

Gender: Female

Longevity: 4 years 4 months

Posts: 551945

Location: Екатеринбург

Post 02-Dec-2015 05:44

[Quote]

Маска смерти / Mask of Death
Страна: США, Канада
Жанр: боевик
Год выпуска: 1996
Продолжительность: 01:28:46
Перевод: Авторский (одноголосый закадровый) Андрей Гаврилов
Cубтитры: нет
Оригинальная аудиодорожка: нет
Режиссер: Дэвид Митчелл / David Mitchell
В ролях: Лоренцо Ламас, Рей Дон Чонг, Билли Ди Уильямс, Конрад Данн, Томас Кэвэна, Кевин МакНалти
Описание: Во время перестрелки с членами известной преступной группировки Дэниел Маккена, полицейский, не находившийся в тот момент на дежурстве, теряет жену и получает пулю в лицо. Благодаря волшебству пластической хирургии, Маккена получает внешность погибшего Лайла Мейсона, одного из членов группировки.
Маккена идет на это добровольно — с тем, чтобы отомстить за гибель жены. Но об этом никто не предупредил Касс Тернер, сексуальную и опасную напарницу Маккены, которая тайно мечтает о мести.
И теперь Маккена (он же — Мейсон) должен помешать преступникам заполучить ценный микрочип и в то же время не стать жертвой своей бывшей напарницы, которая не узнаёт его и хочет убить…
Доп. информация:
Видеоряд взят из этой раздачи , за которую благодарим danisyfer.
За звуковую дорожку с переводом А. Гаврилова с лицензионной VHS от компании West Video большое спасибо Glowamy.
За синхронизацию звуковой дороги и работу со звуком огромная благодарность ale_x2008.
Сэмпл: https://www.sendspace.com/file/gbgr9l
Качество видео: DVDRip
Формат видео: AVI
Видео: 704x384, 23.976 fps, MPEG-4 Visual, 2063 Kbps, XviD 1.1.0
Аудио: 48 KHz, AC3, 2 ch (stereo), 192 Kbps

MediaInfo

General
Complete name : C:\Users\Маска смерти.avi
Format : AVI
Format/Info : Audio Video Interleave
File size : 1.40 GiB
Duration : 1h 28mn
Overall bit rate : 2 264 Kbps
Writing application : VirtualDubMod 1.5.10.2 (build 2540/release)
Writing library : VirtualDubMod build 2540/release
Video
ID : 0
Format : MPEG-4 Visual
Format profile : Advanced Simple@L5
Format settings, BVOP : 1
Format settings, QPel : No
Format settings, GMC : No warppoints
Format settings, Matrix : Default (H.263)
Codec ID : XVID
Codec ID/Hint : XviD
Duration : 1h 28mn
Bit rate : 2 063 Kbps
Width : 704 pixels
Height : 384 pixels
Display aspect ratio : 1.85:1
Frame rate : 23.976 fps
Color space : YUV
Chroma subsampling : 4:2:0
Bit depth : 8 bits
Scan type : Progressive
Compression mode : Lossy
Bits/(Pixel*Frame) : 0.318
Stream size : 1.28 GiB (91%)
Writing library : XviD 1.1.0 (UTC 2005-11-22)
Audio
ID : 1
Format : AC-3
Format/Info : Audio Coding 3
Mode extension : CM (complete main)
Format settings, Endianness : Big
Codec ID : 2000
Duration : 1h 28mn
Bit rate mode : Constant
Bit rate : 192 Kbps
Channel(s) : 2 channels
Channel positions : Front: L R
Sampling rate : 48.0 KHz
Bit depth : 16 bits
Compression mode : Lossy
Stream size : 122 MiB (8%)
Alignment : Split accross interleaves
Interleave, duration : 42 ms (1.00 video frame)
Interleave, preload duration : 500 ms

Скриншоты

To download the content you need:
1. Download and install torrent client [for Windows] or for mobile system
2. Click on [Download]
Attention.
If the test YOU are NOT a ROBOT - does not work, then You are using an outdated browser.
Install the current browser and click on [Download]

Do not work with Yandex browser. Uploading files to them is erroneous.
Security: torrent client is allowed by Kaspersky.

[en.asmlocator.ru].t4933.torrent 
Torrent: Registered [ 2015-12-02 05:40 ] · CEA03B3E578CFDF61B7280D6835465DEFCBC5B5A

Download .torrent

Download

15 KB

Status: checked
Completed: 0 times
Size: 1.4 GB
terms.php
[Profile] [PM]
Display posts:    
Reply to topic

Current time is: 31-Mar 18:44

All times are UTC ± 0



You cannot post new topics in this forum
You cannot reply to topics in this forum
You cannot edit your posts in this forum
You cannot delete your posts in this forum
You cannot vote in polls in this forum
You cannot attach files in this forum
You can download files in this forum
Верим фактам, а не вранью Путина! Факт, что Правительство ведёт Россию к истреблению.
Так как численность населения падает, даже не смотря на приток эмигрантов!
Русская нация вымирает и вырождается, смешиваясь с эмигрантами!
Факт, что военных и граждан предприятий заставляют голосовать за партию Единая Россия и Путина
ПОД СТРАХОМ УВОЛЬНЕНИЯ!
Нам не нужно Правительство, блокирующее личную жизнь, интернет, нарушающее сохранность данных.
Все эти действия финансируются за счёт народа!