Бруно / Bruno / The Dress Code (Ширли МакЛейн / Shirley MacLaine) [2000, США, драма, комедия, DVDRip] MVO

Reply to topic
DL-List and Torrent activity
Size:  706 MB   |    Registered:  4 years 3 months   |    Completed:  0 times

Seeder not seen: 2 years 3 months

 
   
 
 
Author Message

star21 ®

Gender: Female

Longevity: 4 years 4 months

Posts: 551945

Location: Екатеринбург

Post 02-Dec-2015 05:44

[Quote]

Бруно / Bruno / The Dress Code Страна: США
Жанр: драма, комедия
Год выпуска: 2000
Продолжительность: 01:43:44
Перевод: Профессиональный (многоголосый закадровый)
Cубтитры: нет
Режиссер: Ширли МакЛейн / Shirley MacLaine
В ролях: Алекс Линц, Ширли МакЛейн, Гэри Синиз, Кэти Бейтс, Стэйси Хэлприн, Киэми Дэвел, Джои Лорен Эдамс, Дженнифер Тилли, Кристиан Дуранго
Описание: Познакомьтесь с удивительным мальчиком Бруно! Он еще совсем маленький, но у него уже уйма серьезных проблем: над ним издеваются одноклассники, у него самая толстая мама на свете и никому нет дела до его заветных желаний.
Вся школа смеется над причудами Бруно, его стесняется даже родной отец, но этот находчивый малыш уже знает, как удивить всех, кто не подозревает, что рядом с ними живет забавный выдумщик и настоящий вундеркинд!
[imdb]http://www.imdb.com/title/tt0123003[/imdb]
Качество видео:
Формат видео: AVI
Видео кодек: XviD
Аудио кодек: AC3
Видео: 528x400 (1.32:1), 25 fps, XviD MPEG-4 ~845 kbps avg, 0.16 bit/pixel
Аудио: 48 kHz, AC3 Dolby Digital, 1/0 (C) ch, ~96 kbps

Доп.инфо

за видеоряд спасибо Nate N. River
за аудиодорогу спасибо Glowamy

MediaInfo

Полное имя : Бруно 2000.avi
Формат : AVI
Формат/Информация : Audio Video Interleave
Размер файла : 706 Мбайт
Продолжительность : 1 ч. 43 м.
Общий поток : 951 Кбит/сек
Программа кодирования : VirtualDubMod 1.5.10.2 (build 2540/release)
Библиотека кодирования : VirtualDubMod build 2540/release
Видео
Идентификатор : 0
Формат : MPEG-4 Visual
Профиль формата : Advanced Simple@L5
Параметр BVOP формата : 1
Параметр QPel формата : Нет
Параметр GMC формата : Без точки перехода
Параметр матрицы формата : Выборочная
Идентификатор кодека : XVID
Идентификатор кодека/Подсказка : XviD
Продолжительность : 1 ч. 43 м.
Битрейт : 846 Кбит/сек
Ширина : 528 пикселей
Высота : 400 пикселей
Соотношение сторон : 4:3
Частота кадров : 25,000 кадров/сек
Цветовое пространство : YUV
Субдискретизация насыщенности : 4:2:0
Битовая глубина : 8 бит
Тип развёртки : Прогрессивная
Метод сжатия : С потерями
Бит/(Пиксели*Кадры) : 0.160
Размер потока : 627 Мбайт (89%)
Библиотека кодирования : XviD 1.2.1 (UTC 2008-12-04)
Аудио
Идентификатор : 1
Формат : AC-3
Формат/Информация : Audio Coding 3
Расширение режима : CM (complete main)
Параметр Endianness формата : Big
Идентификатор кодека : 2000
Продолжительность : 1 ч. 43 м.
Вид битрейта : Постоянный
Битрейт : 96,0 Кбит/сек
Каналы : 1 канал
Расположение каналов : Front: C
Частота : 48,0 КГц
Битовая глубина : 16 бит
Метод сжатия : С потерями
Размер потока : 71,2 Мбайт (10%)
Выравнивание : Разделение по промежуткам
Продолжительность промежутка : 40 мс. (1,00 видеокадр)
Время предзагрузки промежутка : 500 мс.

Скриншоты

To download the content you need:
1. Download and install torrent client [for Windows] or for mobile system
2. Click on [Download]
Attention.
If the test YOU are NOT a ROBOT - does not work, then You are using an outdated browser.
Install the current browser and click on [Download]

Do not work with Yandex browser. Uploading files to them is erroneous.
Security: torrent client is allowed by Kaspersky.

[en.asmlocator.ru].t4931.torrent 
Torrent: Registered [ 2015-12-02 05:40 ] · D080B376C71A5AF3E0E3FA324E9017AC2A1ABB8D

Download .torrent

Download

14 KB

Status: checked
Completed: 0 times
Size: 706 MB
terms.php
[Profile] [PM]
Display posts:    
Reply to topic

Current time is: 31-Mar 19:42

All times are UTC ± 0



You cannot post new topics in this forum
You cannot reply to topics in this forum
You cannot edit your posts in this forum
You cannot delete your posts in this forum
You cannot vote in polls in this forum
You cannot attach files in this forum
You can download files in this forum
Верим фактам, а не вранью Путина! Факт, что Правительство ведёт Россию к истреблению.
Так как численность населения падает, даже не смотря на приток эмигрантов!
Русская нация вымирает и вырождается, смешиваясь с эмигрантами!
Факт, что военных и граждан предприятий заставляют голосовать за партию Единая Россия и Путина
ПОД СТРАХОМ УВОЛЬНЕНИЯ!
Нам не нужно Правительство, блокирующее личную жизнь, интернет, нарушающее сохранность данных.
Все эти действия финансируются за счёт народа!