Ну Очень Страшное Кино / Shriek If You Know What I Did Last Friday the Thirteenth (Джон Бланчард / John Blanchard) [2000, США, Ужасы, комедия, пародия, DVDRip] MVO (R5)

Reply to topic
DL-List and Torrent activity
Size:  744 MB   |    Registered:  4 years 4 months   |    Completed:  0 times

Seeder not seen: Never

 
   
 
 
Author Message

star21 ®

Gender: Female

Longevity: 4 years 5 months

Posts: 551945

Location: Екатеринбург

Post 02-Dec-2015 05:44

[Quote]

Ну Очень Страшное Кино / Shriek If You Know What I Did Last Friday the Thirteenth
Страна: США
Жанр: Ужасы, комедия, пародия
Год выпуска: 2000
Продолжительность: 01:22:29
Перевод: Профессиональный (многоголосый закадровый) R5
Cубтитры: нет
Режиссер: Джон Бланчард / John Blanchard
В ролях: Джули Бенц, Харли Кросс, Маджандра Делфино, Саймон Рекс, Дэнни Стронг, Кулио, Эйми Грэм, Ширли Джонс, Роуз Мари, Дэвид Херман, Тиффани Тиссен, Том Арнольд, Крис Палермо, Ким Грайст, Стивен Энтони Лоуренс, Мартин Диггз, Минк Стоул, Арти Лэнг, Кристин Херольд, Рени Грэхэм, Джо Нелмс, Сью Бэйли, Дуглас Фишер, Джордж Э. Робертс, Кай Эфрон, Лорел Грин, Карен Хартман, Джонатан Пессин, Райан Френсис, Аланна Юбак, Джон Гоча, Гэвин Грейзер, Джимми Уолкер, Кристиан Эверхард, Палома Парфри, Лили Марлен, Дэника О’Брайэн, Аника Стивен, Эми Вуд, Николас Ланье, Кристи
Описание: В каждом уважающем себя фильме ужасов есть телефон, который вот-вот зазвонит… жертва, которая вот — вот завопит… убийца, который вот — вот нанесет смертельный удар. И единственный способ остаться в живых — это твердо помнить, что надо всегда опережать убийцу на один шаг… даже если он полный кретин! Когда сексуальная репортерша, вечно сующая свой нос, на пару с попадающими во всякие дурацкие истории охранником из супермаркета пытаются остановить убийцу, задумавшего расправиться с самыми видными учениками средней школы Булемия — Фоллз, начинается такое…

Автор: BEN-BEN
Релиз:
Качество видео: DVDRip
Формат видео: AVI
Видео: 656x496 (1.32:1), 25 fps, XviD build 73 ~1123 kbps avg, 0.14 bit/pixel
Аудио: 48 kHz, MPEG Layer 3, 2 ch, ~128.00 kbps avg

MediaInfo

Общее
Полное имя : C:\Documents and Settings\User\Рабочий стол\Кинозал.тв\Nu.ochen.straschnoe.kino.2000.DVDRip.BEN-BEN.avi
Формат : AVI
Формат/Информация : Audio Video Interleave
Размер файла : 744 Мбайт
Продолжительность : 1 ч. 22 м.
Общий поток : 1261 Кбит/сек
Программа кодирования : VirtualDubMod 1.5.10.3 | www.virtualdub-fr.org || (build 2550/release)
Библиотека кодирования : VirtualDubMod build 2550/release
Видео
Идентификатор : 0
Формат : MPEG-4 Visual
Профиль формата : Advanced Simple@L5
Параметр BVOP формата : 1
Параметр QPel формата : Нет
Параметр GMC формата : Без точки перехода
Параметр матрицы формата : Выборочная
Идентификатор кодека : XVID
Идентификатор кодека/Подсказка : XviD
Продолжительность : 1 ч. 22 м.
Битрейт : 1124 Кбит/сек
Ширина : 656 пикселей
Высота : 496 пикселей
Соотношение сторон : 4:3
Частота кадров : 25,000 кадров/сек
Цветовое пространство : YUV
Субдискретизация насыщенности : 4:2:0
Битовая глубина : 8 бит
Тип развёртки : Прогрессивная
Метод сжатия : С потерями
Бит/(Пиксели*Кадры) : 0.138
Размер потока : 663 Мбайт (89%)
Библиотека кодирования : XviD 73
Аудио
Идентификатор : 1
Формат : MPEG Audio
Версия формата : Version 1
Профиль формата : Layer 3
Идентификатор кодека : 55
Идентификатор кодека/Подсказка : MP3
Продолжительность : 1 ч. 22 м.
Вид битрейта : Постоянный
Битрейт : 128 Кбит/сек
Каналы : 2 канала
Частота : 48,0 КГц
Метод сжатия : С потерями
Размер потока : 75,5 Мбайт (10%)
Выравнивание : Соединение по промежуткам
Продолжительность промежутка : 40 мс. (1,00 видеокадр)
Время предзагрузки промежутка : 504 мс.
Библиотека кодирования : LAME3.99r
Настройки программы : -m s -V 4 -q 2 -lowpass 17 -b 128

Скриншоты

Сравнение

Соотношения сторон разные
http://screenshotcomparison.com/comparison/139686

To download the content you need:
1. Download and install torrent client [for Windows] or for mobile system
2. Click on [Download]
Attention.
If the test YOU are NOT a ROBOT - does not work, then You are using an outdated browser.
Install the current browser and click on [Download]

Do not work with Yandex browser. Uploading files to them is erroneous.
Security: torrent client is allowed by Kaspersky.

[en.asmlocator.ru].t4930.torrent 
Torrent: Registered [ 2015-12-02 05:40 ] · AFAAB973D2D139A560DA4D73FDF611284DBFC4FD

Download .torrent

Download

15 KB

Status: checked
Completed: 0 times
Size: 744 MB
terms.php
[Profile] [PM]
Display posts:    
Reply to topic

Current time is: 10-Apr 10:01

All times are UTC ± 0



You cannot post new topics in this forum
You cannot reply to topics in this forum
You cannot edit your posts in this forum
You cannot delete your posts in this forum
You cannot vote in polls in this forum
You cannot attach files in this forum
You can download files in this forum
Верим фактам, а не вранью Путина! Факт, что Правительство ведёт Россию к истреблению.
Так как численность населения падает, даже не смотря на приток эмигрантов!
Русская нация вымирает и вырождается, смешиваясь с эмигрантами!
Факт, что военных и граждан предприятий заставляют голосовать за партию Единая Россия и Путина
ПОД СТРАХОМ УВОЛЬНЕНИЯ!
Нам не нужно Правительство, блокирующее личную жизнь, интернет, нарушающее сохранность данных.
Все эти действия финансируются за счёт народа!