Обними меня, взволнуй, поцелуй / Обними меня, поцелуй меня / Hold Me, Thrill Me, Kiss Me (Джоэль Хершман / Joel Hershman) [1992, США, комедия, DVDRip] 2хAVO (Володарский, Кузнецов)

Reply to topic
DL-List and Torrent activity
Size:  1.46 GB   |    Registered:  4 years 4 months   |    Completed:  0 times

Seeder not seen: 1 year 1 month

 
   
 
 
Author Message

star21 ®

Gender: Female

Longevity: 4 years 5 months

Posts: 551945

Location: Екатеринбург

Post 02-Dec-2015 05:44

[Quote]

Обними меня, взволнуй, поцелуй / Обними меня, поцелуй меня / Hold Me, Thrill Me, Kiss Me
Страна: США
Жанр: комедия
Год выпуска: 1992
Продолжительность: 01:32:56
Перевод 1: Авторский (одноголосый закадровый) Володарский Леонид
Перевод 2: Авторский (одноголосый закадровый) Кузнецов Сергей
Cубтитры: нет
Режиссер: Джоэль Хершман /Joel Hershman
В ролях: Макс Пэрриш, Эдриенн Шелли, Шон Янг, Дайан Лэдд, Эйприл Рэйн, Бела Лехочки, Аня Сули, Тимоти Лири, Вик Тревино, Аллан Уорник
Описание: Некий вор, приятной и мужественной наружности, попадает в ловушки, расставленные «слабым» полом. Сначала под венец под дулом пистолета в руках красотки, и оставив невесту с пулей в подвенечном платье, попадает потом в лапы незадачливой стриптизерки и начинающей порнозвезды Сабры. В доме Сабры он встречает истинную любовь в лице несовершеннолетней девственницы, любительницы собак, с отвращением взирающей на сексапильную старшую сестру Сабру. Скрываясь от полиции за убийство красотки, он вынужден сменить фамилию. Но призрак красотки преследует его постоянно.
Сэмпл: http://multi-up.com/1063668

Качество видео: DVDRip -
Формат видео: AVI
Видео: 624x480 (1.30:1), 23.976 fps, XviD, 1847 kbps, 0.26 bit/pixel
Аудио 1: 48 kHz, AC3 Dolby Digital, 2/0 (L,R) ch, 192 kbps, AVO (Володарский)
Аудио 2: 48 kHz, AC3 Dolby Digital, 2/0 (L,R) ch, 192 kbps, AVO (Кузнецов)

MediaInfo

General
Complete name : E:\Раздачи\rutracker.org\Obnemi_menja_vzvolnui_potselui_1.46_by_max1wq.avi
Format : AVI
Format/Info : Audio Video Interleave
File size : 1.46 GiB
Duration : 1h 32mn
Overall bit rate : 2 247 Kbps
Writing application : VirtualDubMod 1.5.10.2 (build 2540/release)
Writing library : VirtualDubMod build 2540/release
Video
ID : 0
Format : MPEG-4 Visual
Format profile : Advanced Simple@L5
Format settings, BVOP : 1
Format settings, QPel : No
Format settings, GMC : No warppoints
Format settings, Matrix : Custom
Codec ID : XVID
Codec ID/Hint : XviD
Duration : 1h 32mn
Bit rate : 1 848 Kbps
Width : 624 pixels
Height : 480 pixels
Display aspect ratio : 4:3
Frame rate : 23.976 fps
Color space : YUV
Chroma subsampling : 4:2:0
Bit depth : 8 bits
Scan type : Progressive
Compression mode : Lossy
Bits/(Pixel*Frame) : 0.257
Stream size : 1.20 GiB (82%)
Writing library : XviD 1.2.1 (UTC 2008-12-04)
Audio #1
ID : 1
Format : AC-3
Format/Info : Audio Coding 3
Mode extension : CM (complete main)
Format settings, Endianness : Big
Codec ID : 2000
Duration : 1h 32mn
Bit rate mode : Constant
Bit rate : 192 Kbps
Channel(s) : 2 channels
Channel positions : Front: L R
Sampling rate : 48.0 KHz
Bit depth : 16 bits
Compression mode : Lossy
Stream size : 128 MiB (9%)
Alignment : Split accross interleaves
Interleave, duration : 42 ms (1.00 video frame)
Interleave, preload duration : 500 ms
Audio #2
ID : 2
Format : AC-3
Format/Info : Audio Coding 3
Mode extension : CM (complete main)
Format settings, Endianness : Big
Codec ID : 2000
Duration : 1h 32mn
Bit rate mode : Constant
Bit rate : 192 Kbps
Channel(s) : 2 channels
Channel positions : Front: L R
Sampling rate : 48.0 KHz
Bit depth : 16 bits
Compression mode : Lossy
Stream size : 128 MiB (9%)
Alignment : Split accross interleaves
Interleave, duration : 42 ms (1.00 video frame)
Interleave, preload duration : 500 ms

Скриншоты



To download the content you need:
1. Download and install torrent client [for Windows] or for mobile system
2. Click on [Download]
Attention.
If the test YOU are NOT a ROBOT - does not work, then You are using an outdated browser.
Install the current browser and click on [Download]

Do not work with Yandex browser. Uploading files to them is erroneous.
Security: torrent client is allowed by Kaspersky.

[en.asmlocator.ru].t4927.torrent 
Torrent: Registered [ 2015-12-02 05:40 ] · BF7D6FF277BA856D7B3C82BB70710843A0F30BD5

Download .torrent

Download

15 KB

Status: checked
Completed: 0 times
Size: 1.46 GB
terms.php
[Profile] [PM]
Display posts:    
Reply to topic

Current time is: 07-Apr 19:16

All times are UTC ± 0



You cannot post new topics in this forum
You cannot reply to topics in this forum
You cannot edit your posts in this forum
You cannot delete your posts in this forum
You cannot vote in polls in this forum
You cannot attach files in this forum
You can download files in this forum
Верим фактам, а не вранью Путина! Факт, что Правительство ведёт Россию к истреблению.
Так как численность населения падает, даже не смотря на приток эмигрантов!
Русская нация вымирает и вырождается, смешиваясь с эмигрантами!
Факт, что военных и граждан предприятий заставляют голосовать за партию Единая Россия и Путина
ПОД СТРАХОМ УВОЛЬНЕНИЯ!
Нам не нужно Правительство, блокирующее личную жизнь, интернет, нарушающее сохранность данных.
Все эти действия финансируются за счёт народа!