Обними меня, взволнуй, поцелуй / Обними меня, поцелуй меня / Hold Me, Thrill Me, Kiss Me (Джоэль Хершман / Joel Hershman) [1992, США, комедия, DVDRip] 2хAVO (Володарский, Кузнецов) + Original Eng

Reply to topic
DL-List and Torrent activity
Size:  916 MB   |    Registered:  4 years 4 months   |    Completed:  0 times

Seeder not seen: Never

 
   
 
 
Author Message

star21 ®

Gender: Female

Longevity: 4 years 4 months

Posts: 551945

Location: Екатеринбург

Post 02-Dec-2015 05:44

[Quote]

Обними меня, взволнуй, поцелуй / Обними меня, поцелуй меня / Hold Me, Thrill Me, Kiss Me
Страна: США
Жанр: комедия
Год выпуска: 1992
Продолжительность: 01:32:56
Перевод 1: Авторский (одноголосый закадровый) Володарский Леонид
Перевод 2: Авторский (одноголосый закадровый) Кузнецов Сергей
Cубтитры: нет
Оригинальная аудиодорожка: английский
Режиссер: Джоэль Хершман /Joel Hershman
В ролях: Макс Пэрриш, Эдриенн Шелли, Шон Янг, Дайан Лэдд, Эйприл Рэйн, Бела Лехочки, Аня Сули, Тимоти Лири, Вик Тревино, Аллан Уорник
Описание: Некий вор, приятной и мужественной наружности, попадает в ловушки, расставленные «слабым» полом. Сначала под венец под дулом пистолета в руках красотки, и оставив невесту с пулей в подвенечном платье, попадает потом в лапы незадачливой стриптизерки и начинающей порнозвезды Сабры. В доме Сабры он встречает истинную любовь в лице несовершеннолетней девственницы, любительницы собак, с отвращением взирающей на сексапильную старшую сестру Сабру. Скрываясь от полиции за убийство красотки, он вынужден сменить фамилию. Но призрак красотки преследует его постоянно.
Сэмпл: http://multi-up.com/1063673

Качество видео: DVDRip -
Формат видео: AVI
Видео: 560x432 (1.30:1), 23.976 fps, XviD, 983 kbps avg, 0.17 bit/pixel
Аудио 1: 48 kHz, MPEG Layer 3, 2 ch, 128.00 kbps AVO (Володарский)
Аудио 2: 48 kHz, MPEG Layer 3, 2 ch, 128.00 kbps, 192 kbps, AVO (Кузнецов) - Отдельно.
Аудио 3: 48 kHz, MPEG Layer 3, 2 ch, 128.00 kbps, 192 kbps, Original (Eng) - Отдельно.

MediaInfo

General
Complete name : E:\Раздачи\rutracker.org\Obnemi_menja_vzvolnui_potselui_745_by_max1wq\Obnemi_menja_vzvolnui_potselui_745_by_max1wq.avi
Format : AVI
Format/Info : Audio Video Interleave
File size : 745 MiB
Duration : 1h 32mn
Overall bit rate : 1 121 Kbps
Writing application : VirtualDubMod 1.5.10.2 (build 2540/release)
Writing library : VirtualDubMod build 2540/release
Video
ID : 0
Format : MPEG-4 Visual
Format profile : Advanced Simple@L5
Format settings, BVOP : 1
Format settings, QPel : No
Format settings, GMC : No warppoints
Format settings, Matrix : Custom
Codec ID : XVID
Codec ID/Hint : XviD
Duration : 1h 32mn
Bit rate : 984 Kbps
Width : 560 pixels
Height : 432 pixels
Display aspect ratio : 1.296
Frame rate : 23.976 fps
Color space : YUV
Chroma subsampling : 4:2:0
Bit depth : 8 bits
Scan type : Progressive
Compression mode : Lossy
Bits/(Pixel*Frame) : 0.170
Stream size : 654 MiB (88%)
Writing library : XviD 1.2.1 (UTC 2008-12-04)
Audio
ID : 1
Format : MPEG Audio
Format version : Version 1
Format profile : Layer 3
Mode : Joint stereo
Mode extension : MS Stereo
Codec ID : 55
Codec ID/Hint : MP3
Duration : 1h 32mn
Bit rate mode : Constant
Bit rate : 128 Kbps
Channel(s) : 2 channels
Sampling rate : 48.0 KHz
Compression mode : Lossy
Stream size : 85.1 MiB (11%)
Alignment : Aligned on interleaves
Interleave, duration : 42 ms (1.00 video frame)
Interleave, preload duration : 504 ms
General
Complete name : E:\Раздачи\rutracker.org\Obnemi_menja_vzvolnui_potselui_745_by_max1wq\Obnemi_menja_vzvolnui_potselui_745_by_max1wq.Eng.mp3
Format : MPEG Audio
File size : 85.1 MiB
Duration : 1h 32mn
Overall bit rate mode : Constant
Overall bit rate : 128 Kbps
Genre : ??????
Audio
Format : MPEG Audio
Format version : Version 1
Format profile : Layer 3
Duration : 1h 32mn
Bit rate mode : Constant
Bit rate : 128 Kbps
Channel(s) : 2 channels
Sampling rate : 48.0 KHz
Compression mode : Lossy
Stream size : 85.1 MiB (100%)
General
Complete name : E:\Раздачи\rutracker.org\Obnemi_menja_vzvolnui_potselui_745_by_max1wq\Obnemi_menja_vzvolnui_potselui_745_by_max1wq.Kuznetsov.mp3
Format : MPEG Audio
File size : 85.1 MiB
Duration : 1h 32mn
Overall bit rate mode : Constant
Overall bit rate : 128 Kbps
Genre : ??????
Audio
Format : MPEG Audio
Format version : Version 1
Format profile : Layer 3
Mode : Joint stereo
Mode extension : MS Stereo
Duration : 1h 32mn
Bit rate mode : Constant
Bit rate : 128 Kbps
Channel(s) : 2 channels
Sampling rate : 48.0 KHz
Compression mode : Lossy
Stream size : 85.1 MiB (100%)

Скриншоты



To download the content you need:
1. Download and install torrent client [for Windows] or for mobile system
2. Click on [Download]
Attention.
If the test YOU are NOT a ROBOT - does not work, then You are using an outdated browser.
Install the current browser and click on [Download]

Do not work with Yandex browser. Uploading files to them is erroneous.
Security: torrent client is allowed by Kaspersky.

[en.asmlocator.ru].t4926.torrent 
Torrent: Registered [ 2015-12-02 05:40 ] · B9AB54E0EDFB55DCC50CF96EEC640030DAE0C90E

Download .torrent

Download

19 KB

Status: checked
Completed: 0 times
Size: 916 MB
terms.php
[Profile] [PM]
Display posts:    
Reply to topic

Current time is: 04-Apr 15:02

All times are UTC ± 0



You cannot post new topics in this forum
You cannot reply to topics in this forum
You cannot edit your posts in this forum
You cannot delete your posts in this forum
You cannot vote in polls in this forum
You cannot attach files in this forum
You can download files in this forum
Верим фактам, а не вранью Путина! Факт, что Правительство ведёт Россию к истреблению.
Так как численность населения падает, даже не смотря на приток эмигрантов!
Русская нация вымирает и вырождается, смешиваясь с эмигрантами!
Факт, что военных и граждан предприятий заставляют голосовать за партию Единая Россия и Путина
ПОД СТРАХОМ УВОЛЬНЕНИЯ!
Нам не нужно Правительство, блокирующее личную жизнь, интернет, нарушающее сохранность данных.
Все эти действия финансируются за счёт народа!