Любовь в лугах / Le Bonheur est dans le pre (Этьен Шатилье / Étienne Chatiliez) [1995, Франция, Комедия, DVDRip] DVO (Мосфильм) + Original Fre

Reply to topic
DL-List and Torrent activity
Size:  1.46 GB   |    Registered:  4 years 4 months   |    Completed:  1 time

Seeder not seen: 5 months 18 days

 
   
 
 
Author Message

star21 ®

Gender: Female

Longevity: 4 years 5 months

Posts: 551945

Location: Екатеринбург

Post 02-Dec-2015 05:44

[Quote]

Любовь в лугах / Le Bonheur est dans le pré Страна: Франция
Жанр: Комедия
Год выпуска: 1995
Продолжительность: 01:41:31
Перевод: Профессиональный (двухголосый закадровый) - "Мосфильм"
Cубтитры: нет
Оригинальная аудиодорожка: французская
Режиссер: Этьен Шатилье / étienne Chatiliez
В ролях: Мишель Серро, Эдди Митчелл, Сабин Азема, Кармен Маура, Франсуа Морель, Гилен Лондез, Виржини Дармон, Александра Лондон, Кристоф Курочкин, Жан Буске.
Описание: Месье Бержад — хозяин фабрики сантехники в небольшом французском городке. Любимое занятие его рабочих — периодически бастовать, его дочери и жены-мещанки — вытягивать из него деньги и донимать капризами, а местная налоговая инспекция желает получить с него несколько сот тысяч франков, что окончательно разорит предприятие.
Но вот по телевидению, в передаче «Найди меня», женщина показывает фотографию исчезнувшего 26 лет назад мужа. Это — двойник Жэпэ! доведенный до отчаяния Жэпэ признает себя пропавшим, изображенным на фотографии и начинает новую, и на удивление счастливую жизнь: настоящий муж, оказывается, был весьма состоятельным человеком.
Только вот каким образом сумел разбогатеть его двойник, что делает в сарае чемодан с оружием, и куда исчез настоящий муж?
[imdb]http://www.imdb.com/title/tt0112556[/imdb]
Доп. информация:
За предоставление русской звуковой дорожки огромное(!) спасибо -у
DVDRip и синхронизация звука -
Эксклюзив для

Качество видео: DVDRip
Формат видео: AVI
Видео: 688x384 (1.79:1), 25 fps, XviD build 50 ~1657 kbps avg, 0.25 bit/pixel
Аудио 1: 48 kHz, AC3 Dolby Digital, 2/0 (L,R) ch, ~192 kbps - Rus
Аудио 2: 48 kHz, AC3 Dolby Digital, 2/0 (L,R) ch, ~192 kbps - Fre

MediaInfo

General
Complete name : D:\Public\Le.Bonheur.est.dans.le.pre.(1995).Rus-Fre.avi
Format : AVI
Format/Info : Audio Video Interleave
File size : 1.46 GiB
Duration : 1h 41mn
Overall bit rate : 2 057 Kbps
Writing application : VirtualDubMod 1.5.10.2 (build 2542/release)
Writing library : VirtualDubMod build 2542/release
Video
ID : 0
Format : MPEG-4 Visual
Format profile : Advanced Simple@L5
Format settings, BVOP : 1
Format settings, QPel : No
Format settings, GMC : No warppoints
Format settings, Matrix : Default (MPEG)
Codec ID : XVID
Codec ID/Hint : XviD
Duration : 1h 41mn
Bit rate : 1 659 Kbps
Width : 688 pixels
Height : 384 pixels
Display aspect ratio : 16:9
Frame rate : 25.000 fps
Color space : YUV
Chroma subsampling : 4:2:0
Bit depth : 8 bits
Scan type : Progressive
Compression mode : Lossy
Bits/(Pixel*Frame) : 0.251
Stream size : 1.18 GiB (81%)
Writing library : XviD 1.2.1 (UTC 2008-12-04)
Audio #1
ID : 1
Format : AC-3
Format/Info : Audio Coding 3
Mode extension : CM (complete main)
Codec ID : 2000
Duration : 1h 41mn
Bit rate mode : Constant
Bit rate : 192 Kbps
Channel(s) : 2 channels
Channel positions : Front: L R
Sampling rate : 48.0 KHz
Bit depth : 16 bits
Compression mode : Lossy
Stream size : 139 MiB (9%)
Alignment : Split accross interleaves
Interleave, duration : 40 ms (1.00 video frame)
Interleave, preload duration : 500 ms
Title : Rus
Audio #2
ID : 2
Format : AC-3
Format/Info : Audio Coding 3
Mode extension : CM (complete main)
Codec ID : 2000
Duration : 1h 41mn
Bit rate mode : Constant
Bit rate : 192 Kbps
Channel(s) : 2 channels
Channel positions : Front: L R
Sampling rate : 48.0 KHz
Bit depth : 16 bits
Compression mode : Lossy
Stream size : 139 MiB (9%)
Alignment : Split accross interleaves
Interleave, duration : 40 ms (1.00 video frame)
Interleave, preload duration : 500 ms
Title : Fre

Скриншот c названием фильма

Скриншоты

To download the content you need:
1. Download and install torrent client [for Windows] or for mobile system
2. Click on [Download]
Attention.
If the test YOU are NOT a ROBOT - does not work, then You are using an outdated browser.
Install the current browser and click on [Download]

Do not work with Yandex browser. Uploading files to them is erroneous.
Security: torrent client is allowed by Kaspersky.

[en.asmlocator.ru].t4922.torrent 
Torrent: Registered [ 2015-12-02 05:40 ] · 35900F5ABB86205343ACEA3978EB50D8BA77FB66

Download .torrent

Download

15 KB

Status: checked
Completed: 1 times
Size: 1.46 GB
terms.php
[Profile] [PM]
Display posts:    
Reply to topic

Current time is: 07-Apr 19:44

All times are UTC ± 0



You cannot post new topics in this forum
You cannot reply to topics in this forum
You cannot edit your posts in this forum
You cannot delete your posts in this forum
You cannot vote in polls in this forum
You cannot attach files in this forum
You can download files in this forum
Верим фактам, а не вранью Путина! Факт, что Правительство ведёт Россию к истреблению.
Так как численность населения падает, даже не смотря на приток эмигрантов!
Русская нация вымирает и вырождается, смешиваясь с эмигрантами!
Факт, что военных и граждан предприятий заставляют голосовать за партию Единая Россия и Путина
ПОД СТРАХОМ УВОЛЬНЕНИЯ!
Нам не нужно Правительство, блокирующее личную жизнь, интернет, нарушающее сохранность данных.
Все эти действия финансируются за счёт народа!