Харлей Дэвидсон и ковбой Мальборо / Harley Davidson and the Marlboro Man (Саймон Уинсер / Simon Wincer) [1991, США, Боевик, триллер, драма, криминал, вестерн, BDRip-AVC] MVO (НТВ) + DVO (2xНТВ+) + AVO (Михалёв) + AVO (Гоблин)+ Original (Eng) + Subs

Reply to topic
DL-List and Torrent activity
Size:  3.42 GB   |    Registered:  4 years 3 months   |    Completed:  0 times

Seeder not seen: Never

 
   
 
 
Author Message

star21 ®

Gender: Female

Longevity: 4 years 4 months

Posts: 551945

Location: Екатеринбург

Post 02-Dec-2015 05:44

[Quote]

Харлей Дэвидсон и ковбой Мальборо / Harley Davidson and the Marlboro Man
«Когда крутым парням приходится туго, они берут закон в свои руки»
- Год выпуска: 1991
Выпущено: США / Metro-Goldwyn-Mayer (MGM)
Жанр: боевик, триллер, драма, криминал, вестерн
Продолжительность: 01:38:27
Перевод (1): Профессиональный (многоголосый закадровый) НТВ (А. Новиков, А. Груздев, А. Борзунов и Е. Борзунова)
Перевод (2): Профессиональный (двухголосый закадровый) НТВ+ (Н. Прозоровский и О. Голованова)
Перевод (3): Профессиональный (двухголосый закадровый) НТВ+ (И. Тарадайкин и Н. Казначеева)
Перевод (4): Авторский (одноголосый закадровый) Алексей Михалёв
Перевод (5): Авторский (одноголосый закадровый) Дмитрий «Гоблин» Пучков
Оригинальная аудиодорожка: Английская
Cубтитры: Русские (2 вида: R5, Гоблин*), Английские (полные, SDH)
Навигация по главам: Есть (8 глав)-Режиссер:
Саймон Уинсер / Simon Wincer-В ролях:
Микки Рурк (Harley Davidson), Дон Джонсон (Marlboro), Челси Филд (Virginia Slim), Тиа Каррере (Kimiko), Дэниэл Болдуин (Alexander), Джанкарло Эспозито (Jimmy Jiles), Ванесса Уильямс (Lulu Daniels), Роберт Гинти (Thom), Джулиус Харрис (Old Man), Элой Касадос (Jose), Биг Джон Стадд (Jack Daniels), Том Сайзмор (Chance Wilder)-Описание:
Ренегат Микки Рурк и невероятно талантливый Дон Джонсон с безудержной мощью и непередаваемым юмором сыграли грубоватых и одновременно сердечных «Робин Гудов» нашего времени. В беззаконном мире конца 80-х некий банк грубо пытается отнять принадлежащий бывшему рокеру бар.
Бродяги Харли Дэвидсон и Ковбой Марльборо решили помочь своему старому другу и ограбить инкассаторов банка. Однако в бронемашине оказываются не деньги, а наркотики. Теперь Рурка и Джонсона преследует банда прихвостней коррумпированного банкира. Скоростные мотоциклы, динамичное действие и мощное современное оружие составляют взрывоопасный рецепт этого футуристического приключенческого фильма.-Релиз групп | | [imdb]http://www.imdb.com/title/tt0102005[/imdb] | КиноПоиск | Сэмпл |-Тип релиза: BDRip-AVC [Blu-Ray Disc | 1080p | BLUEBIRD]
Контейнер: MKV
Видео: 1120x608 (1.85:1), 23.976 fps, x264 ~3727 kbps avg, 0.228 bit/pixel
Аудио #1: 48 kHz, AC3 Dolby Digital, 2/0 (L,R) ch, ~192.00 kbps avg (MVO) НТВ
Аудио #2: 48 kHz, AC3 Dolby Digital, 2/0 (L,R) ch, ~192.00 kbps avg (DVO) НТВ+
Аудио #3: 48 kHz, AC3 Dolby Digital, 2/0 (L,R) ch, ~192.00 kbps avg (ENG)
Аудио #4: 48 kHz, AC3 Dolby Digital, 2/0 (L,R) ch, ~192.00 kbps avg (DVO) НТВ+ отдельно
Аудио #5: 48 kHz, AC3 Dolby Digital, 2/0 (L,R) ch, ~192.00 kbps avg (AVO) Алексей Михалёв отдельно
Аудио #6: 48 kHz, AC3 Dolby Digital, 2/0 (L,R) ch, ~192.00 kbps avg (AVO) Дмитрий «Гоблин» Пучков отдельно-

Скриншоты

MediaInfo

General
Complete name                            : D:\Harley_Davidson_i_kovboi_Marlboro_1991_BDRip-AVC_by_Dalemake.mkv
Format                                   : Matroska
Format version                           : Version 4 / Version 2
File size                                : 3.02 GiB
Duration                                 : 1h 38mn
Overall bit rate                         : 4 390 Kbps
Encoded date                             : UTC 2015-08-24 18:24:27
Writing application                      : mkvmerge v6.1.0 ('Old Devil') built on Mar  4 2013 09:10:42
Writing library                          : libebml v1.3.0 + libmatroska v1.4.0
Video
ID                                       : 1
Format                                   : AVC
Format/Info                              : Advanced Video Codec
Format profile                           : High@L4.1
Format settings, CABAC                   : Yes
Format settings, ReFrames                : 11 frames
Codec ID                                 : V_MPEG4/ISO/AVC
Duration                                 : 1h 38mn
Bit rate                                 : 3 727 Kbps
Width                                    : 1 120 pixels
Height                                   : 608 pixels
Display aspect ratio                     : 1.85:1
Frame rate mode                          : Constant
Frame rate                               : 23.976 fps
Color space                              : YUV
Chroma subsampling                       : 4:2:0
Bit depth                                : 8 bits
Scan type                                : Progressive
Bits/(Pixel*Frame)                       : 0.228
Stream size                              : 2.56 GiB (85%)
Writing library                          : x264 core 130 r2273 b3065e6
Encoding settings                        : cabac=1 / ref=11 / deblock=1:-1:-1 / analyse=0x3:0x113 / me=umh / subme=11 / psy=1 / psy_rd=1.00:0.00 / mixed_ref=1 / me_range=32 / chroma_me=1 / trellis=2 / 8x8dct=1 / cqm=0 / deadzone=21,11 / fast_pskip=1 / chroma_qp_offset=-2 / threads=6 / lookahead_threads=1 / sliced_threads=0 / nr=0 / decimate=0 / interlaced=0 / bluray_compat=0 / constrained_intra=0 / bframes=12 / b_pyramid=2 / b_adapt=2 / b_bias=0 / direct=3 / weightb=1 / open_gop=1 / weightp=2 / keyint=240 / keyint_min=23 / scenecut=40 / intra_refresh=0 / rc_lookahead=60 / rc=crf / mbtree=1 / crf=18.2 / qcomp=0.60 / qpmin=0 / qpmax=69 / qpstep=4 / vbv_maxrate=62500 / vbv_bufsize=50000 / crf_max=0.0 / nal_hrd=none / ip_ratio=1.40 / aq=1:0.80
Default                                  : Yes
Forced                                   : No
Audio #1
ID                                       : 2
Format                                   : AC-3
Format/Info                              : Audio Coding 3
Mode extension                           : CM (complete main)
Format settings, Endianness              : Big
Codec ID                                 : A_AC3
Duration                                 : 1h 38mn
Bit rate mode                            : Constant
Bit rate                                 : 192 Kbps
Channel(s)                               : 2 channels
Channel positions                        : Front: L R
Sampling rate                            : 48.0 KHz
Bit depth                                : 16 bits
Compression mode                         : Lossy
Stream size                              : 135 MiB (4%)
Default                                  : Yes
Forced                                   : No
Audio #2
ID                                       : 3
Format                                   : AC-3
Format/Info                              : Audio Coding 3
Format profile                           : Dolby Digital
Mode extension                           : CM (complete main)
Format settings, Endianness              : Big
Codec ID                                 : A_AC3
Duration                                 : 1h 38mn
Bit rate mode                            : Constant
Bit rate                                 : 192 Kbps
Channel(s)                               : 2 channels
Channel positions                        : Front: L R
Sampling rate                            : 48.0 KHz
Bit depth                                : 16 bits
Compression mode                         : Lossy
Stream size                              : 135 MiB (4%)
Default                                  : No
Forced                                   : No
Audio #3
ID                                       : 4
Format                                   : AC-3
Format/Info                              : Audio Coding 3
Mode extension                           : CM (complete main)
Format settings, Endianness              : Big
Codec ID                                 : A_AC3
Duration                                 : 1h 38mn
Bit rate mode                            : Constant
Bit rate                                 : 192 Kbps
Channel(s)                               : 2 channels
Channel positions                        : Front: L R
Sampling rate                            : 48.0 KHz
Bit depth                                : 16 bits
Compression mode                         : Lossy
Stream size                              : 135 MiB (4%)
Default                                  : No
Forced                                   : No
Text #1
ID                                       : 5
Format                                   : UTF-8
Codec ID                                 : S_TEXT/UTF8
Codec ID/Info                            : UTF-8 Plain Text
Default                                  : Yes
Forced                                   : No
Text #2
ID                                       : 6
Format                                   : UTF-8
Codec ID                                 : S_TEXT/UTF8
Codec ID/Info                            : UTF-8 Plain Text
Default                                  : No
Forced                                   : No
Text #3
ID                                       : 7
Format                                   : UTF-8
Codec ID                                 : S_TEXT/UTF8
Codec ID/Info                            : UTF-8 Plain Text
Default                                  : No
Forced                                   : No
Text #4
ID                                       : 8
Format                                   : UTF-8
Codec ID                                 : S_TEXT/UTF8
Codec ID/Info                            : UTF-8 Plain Text
Default                                  : No
Forced                                   : No
Menu
00:00:00.000                             : en:Chapter 1
00:04:22.720                             : en:Chapter 2
00:15:50.032                             : en:Chapter 3
00:27:17.052                             : en:Chapter 4
00:45:10.416                             : en:Chapter 5
00:58:38.848                             : en:Chapter 6
01:12:13.078                             : en:Chapter 7
01:34:04.055                             : en:Chapter 8

x264 log

x264 [info]: frame I:1085  Avg QP:16.76  size:102430
x264 [info]: frame P:27316 Avg QP:20.27  size: 36582
x264 [info]: frame B:113225 Avg QP:22.61  size: 15049
x264 [info]: consecutive B-frames:  1.3%  1.3%  5.0% 15.3% 15.0% 46.1%  5.9%  2.8%  2.4%  2.0%  1.3%  1.2%  0.5%
x264 [info]: mb I  I16..4:  3.6% 82.6% 13.8%
x264 [info]: mb P  I16..4:  0.5% 11.2%  1.3%  P16..4: 33.4% 37.6% 11.1%  0.0%  0.0%    skip: 5.0%
x264 [info]: mb B  I16..4:  0.0%  1.7%  0.1%  B16..8: 41.4% 20.7%  3.1%  direct: 7.3%  skip:25.6%  L0:46.2% L1:44.4% BI: 9.5%
x264 [info]: 8x8 transform intra:87.5% inter:65.6%
x264 [info]: direct mvs  spatial:100.0% temporal:0.0%
x264 [info]: coded y,uvDC,uvAC intra: 94.8% 82.3% 44.0% inter: 39.1% 29.5% 4.8%
x264 [info]: i16 v,h,dc,p: 29% 20%  5% 46%
x264 [info]: i8 v,h,dc,ddl,ddr,vr,hd,vl,hu:  7%  7%  5% 11% 16% 15% 14% 12% 13%
x264 [info]: i4 v,h,dc,ddl,ddr,vr,hd,vl,hu: 11%  8%  4%  9% 16% 16% 14% 12% 12%
x264 [info]: i8c dc,h,v,p: 35% 26% 20% 19%
x264 [info]: Weighted P-Frames: Y:7.5% UV:2.2%
x264 [info]: ref P L0: 40.3% 11.1% 18.7%  7.3%  6.3%  4.2%  4.0%  2.1%  2.1%  1.7%  1.8%  0.3%  0.0%
x264 [info]: ref B L0: 68.1% 13.5%  6.7%  3.6%  2.5%  2.1%  1.6%  1.0%  0.6%  0.3%
x264 [info]: ref B L1: 91.3%  8.7%

-
*Субтитры «Гоблина» содержат ненормативную лексику
-

To download the content you need:
1. Download and install torrent client [for Windows] or for mobile system
2. Click on [Download]
Attention.
If the test YOU are NOT a ROBOT - does not work, then You are using an outdated browser.
Install the current browser and click on [Download]

Do not work with Yandex browser. Uploading files to them is erroneous.
Security: torrent client is allowed by Kaspersky.

[en.asmlocator.ru].t4921.torrent 
Torrent: Registered [ 2015-12-02 05:40 ] · F2B61938048368E351B3C5E89FAE1B29DEAF0024

Download .torrent

Download

18 KB

Status: checked
Completed: 0 times
Size: 3.42 GB
terms.php
[Profile] [PM]
Display posts:    
Reply to topic

Current time is: 29-Mar 00:29

All times are UTC ± 0



You cannot post new topics in this forum
You cannot reply to topics in this forum
You cannot edit your posts in this forum
You cannot delete your posts in this forum
You cannot vote in polls in this forum
You cannot attach files in this forum
You can download files in this forum
Верим фактам, а не вранью Путина! Факт, что Правительство ведёт Россию к истреблению.
Так как численность населения падает, даже не смотря на приток эмигрантов!
Русская нация вымирает и вырождается, смешиваясь с эмигрантами!
Факт, что военных и граждан предприятий заставляют голосовать за партию Единая Россия и Путина
ПОД СТРАХОМ УВОЛЬНЕНИЯ!
Нам не нужно Правительство, блокирующее личную жизнь, интернет, нарушающее сохранность данных.
Все эти действия финансируются за счёт народа!