Опасное трио / Lewis & Clark & George (Род МакКолл / Rod McCall) [1997, США, триллер, комедия, криминал, DVDRip] MVO (СТС) + AVO (Сербин )

Reply to topic
DL-List and Torrent activity
Size:  1.46 GB   |    Registered:  4 years 4 months   |    Completed:  0 times

Seeder not seen: Never

 
   
 
 
Author Message

star21 ®

Gender: Female

Longevity: 4 years 4 months

Posts: 551945

Location: Екатеринбург

Post 02-Dec-2015 05:44

[Quote]

Опасное трио / Lewis & Clark & George
Страна: США
Жанр: триллер, комедия, криминал
Год выпуска: 1997
Продолжительность: 01:25:41
Перевод 1: Профессиональный (многоголосый закадровый) СТС
Перевод 2: Авторский (одноголосый закадровый) Сербин Юрий
Cубтитры: нет
Режиссер: Род МакКолл /Rod McCall
В ролях: Роуз МакГоун, Дэн Гюнтер, Брайан Тейлор, Сальватор Ксереб, Арт ЛаФлёр, Джеймс Бролин, Джерри Гарднер, Ричард Баттерфилд, Сэлли Джексон, Сюзанн Мари
Описание: Неотразимого Льюиса, отбывающего срок за убийство, и романтичного Кларка, пойманного за компьютерные махинации, объединяет общая цель. У них есть карта, которая откроет им дверь в беззаботное и счастливое будущее. Ради этого стоит совершить побег.
Но, вырвавшись на свободу и отправившись в рискованное путешествие на поиски своей мечты, они встречают коварную и обворожительную Джорджию. Льюис и Кларк не подозревают, что эта встреча станет для них роковой. Лживая и вероломная, Джорджия встанет на пути осуществления их грандиозных планов.
Сэмпл: http://multi-up.com/1063830

Качество видео: DVDRip -
Формат видео: AVI
Видео: 624x336 (1.86:1), 23.976 fps, XviD, 2042 kbps, 0.41 bit/pixel
Аудио 1: 48 kHz, AC3 Dolby Digital, 2/0 (L,R) ch, 192 kbps, MVO (CTC)
Аудио 2: 48 kHz, AC3 Dolby Digital, 2/0 (L,R) ch, 192 kbps, AVO (Сербин)

MediaInfo

General
Complete name : E:\Раздачи\rutracker.org\Opasnoe_trio_1.46_by_max1wq.avi
Format : AVI
Format/Info : Audio Video Interleave
File size : 1.46 GiB
Duration : 1h 25mn
Overall bit rate : 2 441 Kbps
Writing application : VirtualDubMod 1.5.10.2 (build 2540/release)
Writing library : VirtualDubMod build 2540/release
Video
ID : 0
Format : MPEG-4 Visual
Format profile : Advanced Simple@L5
Format settings, BVOP : 2
Format settings, QPel : No
Format settings, GMC : No warppoints
Format settings, Matrix : Custom
Codec ID : XVID
Codec ID/Hint : XviD
Duration : 1h 25mn
Bit rate : 2 043 Kbps
Width : 624 pixels
Height : 336 pixels
Display aspect ratio : 1.85:1
Frame rate : 23.976 fps
Color space : YUV
Chroma subsampling : 4:2:0
Bit depth : 8 bits
Scan type : Progressive
Compression mode : Lossy
Bits/(Pixel*Frame) : 0.406
Stream size : 1.22 GiB (84%)
Writing library : XviD 73
Audio #1
ID : 1
Format : AC-3
Format/Info : Audio Coding 3
Mode extension : CM (complete main)
Format settings, Endianness : Big
Codec ID : 2000
Duration : 1h 25mn
Bit rate mode : Constant
Bit rate : 192 Kbps
Channel(s) : 2 channels
Channel positions : Front: L R
Sampling rate : 48.0 KHz
Bit depth : 16 bits
Compression mode : Lossy
Stream size : 118 MiB (8%)
Alignment : Split accross interleaves
Interleave, duration : 42 ms (1.00 video frame)
Interleave, preload duration : 500 ms
Audio #2
ID : 2
Format : AC-3
Format/Info : Audio Coding 3
Mode extension : CM (complete main)
Format settings, Endianness : Big
Codec ID : 2000
Duration : 1h 25mn
Bit rate mode : Constant
Bit rate : 192 Kbps
Channel(s) : 2 channels
Channel positions : Front: L R
Sampling rate : 48.0 KHz
Bit depth : 16 bits
Compression mode : Lossy
Stream size : 118 MiB (8%)
Alignment : Split accross interleaves
Interleave, duration : 42 ms (1.00 video frame)
Interleave, preload duration : 500 ms

Скриншоты



To download the content you need:
1. Download and install torrent client [for Windows] or for mobile system
2. Click on [Download]
Attention.
If the test YOU are NOT a ROBOT - does not work, then You are using an outdated browser.
Install the current browser and click on [Download]

Do not work with Yandex browser. Uploading files to them is erroneous.
Security: torrent client is allowed by Kaspersky.

[en.asmlocator.ru].t4920.torrent 
Torrent: Registered [ 2015-12-02 05:40 ] · BAACBA8047B2E3AA591EDD5DBBB5B70E3330E3DB

Download .torrent

Download

15 KB

Status: checked
Completed: 0 times
Size: 1.46 GB
terms.php
[Profile] [PM]
Display posts:    
Reply to topic

Current time is: 03-Apr 11:56

All times are UTC ± 0



You cannot post new topics in this forum
You cannot reply to topics in this forum
You cannot edit your posts in this forum
You cannot delete your posts in this forum
You cannot vote in polls in this forum
You cannot attach files in this forum
You can download files in this forum
Верим фактам, а не вранью Путина! Факт, что Правительство ведёт Россию к истреблению.
Так как численность населения падает, даже не смотря на приток эмигрантов!
Русская нация вымирает и вырождается, смешиваясь с эмигрантами!
Факт, что военных и граждан предприятий заставляют голосовать за партию Единая Россия и Путина
ПОД СТРАХОМ УВОЛЬНЕНИЯ!
Нам не нужно Правительство, блокирующее личную жизнь, интернет, нарушающее сохранность данных.
Все эти действия финансируются за счёт народа!