Опасное трио / Lewis & Clark & George (Род МакКолл / Rod McCall) [1997, США, триллер, комедия, криминал, DVDRip] MVO (СТС) + AVO (Сербин ) + Original Eng

Reply to topic
DL-List and Torrent activity
Size:  903 MB   |    Registered:  4 years 4 months   |    Completed:  0 times

Seeder not seen: Never

 
   
 
 
Author Message

star21 ®

Gender: Female

Longevity: 4 years 5 months

Posts: 551945

Location: Екатеринбург

Post 02-Dec-2015 05:44

[Quote]

Опасное трио / Lewis & Clark & George
Страна: США
Жанр: триллер, комедия, криминал
Год выпуска: 1997
Продолжительность: 01:25:41
Перевод 1: Профессиональный (многоголосый закадровый) СТС
Перевод 2: Авторский (одноголосый закадровый) Сербин Юрий
Cубтитры: нет
Оригинальная аудиодорожка: английский
Режиссер: Род МакКолл /Rod McCall
В ролях: Роуз МакГоун, Дэн Гюнтер, Брайан Тейлор, Сальватор Ксереб, Арт ЛаФлёр, Джеймс Бролин, Джерри Гарднер, Ричард Баттерфилд, Сэлли Джексон, Сюзанн Мари
Описание: Неотразимого Льюиса, отбывающего срок за убийство, и романтичного Кларка, пойманного за компьютерные махинации, объединяет общая цель. У них есть карта, которая откроет им дверь в беззаботное и счастливое будущее. Ради этого стоит совершить побег.
Но, вырвавшись на свободу и отправившись в рискованное путешествие на поиски своей мечты, они встречают коварную и обворожительную Джорджию. Льюис и Кларк не подозревают, что эта встреча станет для них роковой. Лживая и вероломная, Джорджия встанет на пути осуществления их грандиозных планов.
Сэмпл: http://multi-up.com/1063837

Качество видео: DVDRip -
Формат видео: AVI
Видео: 624x336 (1.86:1), 23.976 fps, XviD, 1079 kbps, 0.21 bit/pixel
Аудио 1: 48 kHz, MPEG Layer 3, 2 ch, 128.00 kbps, MVO (CTC)
Аудио 2: 48 kHz, MPEG Layer 3, 2 ch, 128.00 kbps, AVO (Сербин) - Отдельно.
Аудио 3: 48 kHz, MPEG Layer 3, 2 ch, 128.00 kbps, Original (Eng) - Отдельно.

MediaInfo

General
Complete name : E:\Раздачи\rutracker.org\Opasnoe_trio_745_by_max1wq\Opasnoe_trio_745_by_max1wq.avi
Format : AVI
Format/Info : Audio Video Interleave
File size : 746 MiB
Duration : 1h 25mn
Overall bit rate : 1 217 Kbps
Writing application : VirtualDubMod 1.5.10.2 (build 2540/release)
Writing library : VirtualDubMod build 2540/release
Video
ID : 0
Format : MPEG-4 Visual
Format profile : Advanced Simple@L5
Format settings, BVOP : 2
Format settings, QPel : No
Format settings, GMC : No warppoints
Format settings, Matrix : Custom
Codec ID : XVID
Codec ID/Hint : XviD
Duration : 1h 25mn
Bit rate : 1 080 Kbps
Width : 624 pixels
Height : 336 pixels
Display aspect ratio : 1.85:1
Frame rate : 23.976 fps
Color space : YUV
Chroma subsampling : 4:2:0
Bit depth : 8 bits
Scan type : Progressive
Compression mode : Lossy
Bits/(Pixel*Frame) : 0.215
Stream size : 662 MiB (89%)
Writing library : XviD 73
Audio
ID : 1
Format : MPEG Audio
Format version : Version 1
Format profile : Layer 3
Codec ID : 55
Codec ID/Hint : MP3
Duration : 1h 25mn
Bit rate mode : Constant
Bit rate : 128 Kbps
Channel(s) : 2 channels
Sampling rate : 48.0 KHz
Compression mode : Lossy
Stream size : 78.5 MiB (11%)
Alignment : Aligned on interleaves
Interleave, duration : 42 ms (1.00 video frame)
Interleave, preload duration : 504 ms
General
Complete name : E:\Раздачи\rutracker.org\Opasnoe_trio_745_by_max1wq\Opasnoe_trio_745_by_max1wq.Eng.mp3
Format : MPEG Audio
File size : 78.5 MiB
Duration : 1h 25mn
Overall bit rate mode : Constant
Overall bit rate : 128 Kbps
Genre : Blues
Audio
Format : MPEG Audio
Format version : Version 1
Format profile : Layer 3
Duration : 1h 25mn
Bit rate mode : Constant
Bit rate : 128 Kbps
Channel(s) : 2 channels
Sampling rate : 48.0 KHz
Compression mode : Lossy
Stream size : 78.5 MiB (100%)
General
Complete name : E:\Раздачи\rutracker.org\Opasnoe_trio_745_by_max1wq\Opasnoe_trio_745_by_max1wq.Serbin.mp3
Format : MPEG Audio
File size : 78.5 MiB
Duration : 1h 25mn
Overall bit rate mode : Constant
Overall bit rate : 128 Kbps
Genre : Blues
Audio
Format : MPEG Audio
Format version : Version 1
Format profile : Layer 3
Duration : 1h 25mn
Bit rate mode : Constant
Bit rate : 128 Kbps
Channel(s) : 2 channels
Sampling rate : 48.0 KHz
Compression mode : Lossy
Stream size : 78.5 MiB (100%)

Скриншоты



To download the content you need:
1. Download and install torrent client [for Windows] or for mobile system
2. Click on [Download]
Attention.
If the test YOU are NOT a ROBOT - does not work, then You are using an outdated browser.
Install the current browser and click on [Download]

Do not work with Yandex browser. Uploading files to them is erroneous.
Security: torrent client is allowed by Kaspersky.

[en.asmlocator.ru].t4919.torrent 
Torrent: Registered [ 2015-12-02 05:40 ] · D14E4F47549907AE129E19954F360459D09000B3

Download .torrent

Download

18 KB

Status: checked
Completed: 0 times
Size: 903 MB
terms.php
[Profile] [PM]
Display posts:    
Reply to topic

Current time is: 08-Apr 03:12

All times are UTC ± 0



You cannot post new topics in this forum
You cannot reply to topics in this forum
You cannot edit your posts in this forum
You cannot delete your posts in this forum
You cannot vote in polls in this forum
You cannot attach files in this forum
You can download files in this forum
Верим фактам, а не вранью Путина! Факт, что Правительство ведёт Россию к истреблению.
Так как численность населения падает, даже не смотря на приток эмигрантов!
Русская нация вымирает и вырождается, смешиваясь с эмигрантами!
Факт, что военных и граждан предприятий заставляют голосовать за партию Единая Россия и Путина
ПОД СТРАХОМ УВОЛЬНЕНИЯ!
Нам не нужно Правительство, блокирующее личную жизнь, интернет, нарушающее сохранность данных.
Все эти действия финансируются за счёт народа!