Проигравший / Whipped (Питер М. Коэн / Peter M. Cohen) [2000, США, комедия, DVDRip] DVO (REN-TV)

Reply to topic
DL-List and Torrent activity
Size:  745 MB   |    Registered:  4 years 6 months   |    Completed:  0 times
DL-List: None

Seeder not seen: Never

 
   
 
 
Author Message

star21 ®

Gender: Female

Longevity: 4 years 7 months

Posts: 551945

Location: Екатеринбург

Post 02-Dec-2015 05:44

[Quote]

Проигравший / Whipped
Страна: США
Жанр: комедия
Год выпуска: 2000
Продолжительность: 01:22:18
Перевод: Профессиональный (двухголосый закадровый) REN-TV
Cубтитры: нет
Оригинальная аудиодорожка: нет
Режиссер: Питер М. Коэн / Peter M. Cohen
В ролях: Аманда Пит, Брайан Ван Холт, Джонатан Абрахамс, Зори Барбер, Юда Домке, Калли Торн
Описание: Трое верных друзей — Брэд, Зик и Джонатан — завзятые донжуаны: не проходит и уик-энда, чтобы они не познакомились с наивными девушками, верящими в их красивые сказки о любви. Вскоре они так увлеклись своей игрой, что не заметили на горизонте настоящую угрозу их счастью — очаровательную Мию, готовую сыграть с ними на равных.
Не долго думая, она завязала отношения с каждым из них. Но так как парням, которые по уши влюбились в неё, она об этом не сказала, жаркая борьба романтиков-профессионалов за прелестную девицу резко обострилась.
Каков же будет её итог? Разумеется, каждый хочет оказаться победителем, ведь проигравшему достанется лишь разбитое сердце.
Доп. информация:
За видеоряд и звуковую дорожку большое спасибо Haos-22.
За синхронизацию звуковой дорожки огромная благодарность JUSTKANT.
Данный фильм впервые на трекере!
Роли озвучивали: Владимир Вихров и Мария Клюквина.
Сэмпл: https://www.sendspace.com/file/kifbad
Качество видео: DVDRip
Формат видео: AVI
Видео: 608x336, 23.976 fps, MPEG-4 Visual, 1063 Kbps, XviD 1.2.0
Аудио: 48 KHz, AC3, 2 ch, 192 Kbps

MediaInfo

General
Complete name : C:\Users\Проигравший (REN-TV).avi
Format : AVI
Format/Info : Audio Video Interleave
File size : 745 MiB
Duration : 1h 22mn
Overall bit rate : 1 265 Kbps
Writing application : VirtualDubMod 1.5.10.3 | www.virtualdub-fr.org || (build 2550/release)
Writing library : VirtualDubMod build 2550/release
Video
ID : 0
Format : MPEG-4 Visual
Format profile : Advanced Simple@L5
Format settings, BVOP : 1
Format settings, QPel : No
Format settings, GMC : No warppoints
Format settings, Matrix : Custom
Codec ID : XVID
Codec ID/Hint : XviD
Duration : 1h 22mn
Bit rate : 1 063 Kbps
Width : 608 pixels
Height : 336 pixels
Display aspect ratio : 16:9
Frame rate : 23.976 fps
Color space : YUV
Chroma subsampling : 4:2:0
Bit depth : 8 bits
Scan type : Progressive
Compression mode : Lossy
Bits/(Pixel*Frame) : 0.217
Stream size : 626 MiB (84%)
Writing library : XviD 1.2.0.dev47 (UTC 2006-11-01)
Audio
ID : 1
Format : AC-3
Format/Info : Audio Coding 3
Mode extension : CM (complete main)
Format settings, Endianness : Big
Codec ID : 2000
Duration : 1h 22mn
Bit rate mode : Constant
Bit rate : 192 Kbps
Channel(s) : 2 channels
Channel positions : Front: L R
Sampling rate : 48.0 KHz
Bit depth : 16 bits
Compression mode : Lossy
Stream size : 113 MiB (15%)
Alignment : Split accross interleaves
Interleave, duration : 42 ms (1.00 video frame)
Interleave, preload duration : 500 ms
Language : English

Скриншоты

To download the content you need:
1. Download and install torrent client [for Windows] or for mobile system
2. Click on [Download]
Attention.
If the test YOU are NOT a ROBOT - does not work, then You are using an outdated browser.
Install the current browser and click on [Download]

Do not work with Yandex browser. Uploading files to them is erroneous.
Security: torrent client is allowed by Kaspersky.

[en.asmlocator.ru].t4915.torrent 
Torrent: Registered [ 2015-12-02 05:40 ] · 8C1CADFAB05F54129CA9EC5DF58B3C2F84C4235D

Download .torrent

Download

15 KB

Status: checked
Completed: 0 times
Size: 745 MB
terms.php
[Profile] [PM]
Display posts:    
Reply to topic

Current time is: 05-Jun 14:36

All times are UTC ± 0



You cannot post new topics in this forum
You cannot reply to topics in this forum
You cannot edit your posts in this forum
You cannot delete your posts in this forum
You cannot vote in polls in this forum
You cannot attach files in this forum
You can download files in this forum
Верим фактам, а не вранью Путина! Факт, что Правительство ведёт Россию к истреблению.
Так как численность населения падает, даже не смотря на приток эмигрантов!
Русская нация вымирает и вырождается, смешиваясь с эмигрантами!
Факт, что военных и граждан предприятий заставляют голосовать за партию Единая Россия и Путина
ПОД СТРАХОМ УВОЛЬНЕНИЯ!
Нам не нужно Правительство, блокирующее личную жизнь, интернет, нарушающее сохранность данных.
Все эти действия финансируются за счёт народа!