Мужские хлопоты / Man Trouble (Боб Рейфелсон / Bob Rafelson) [1992, США, Италия, мелодрама, комедия, DVDRip] MVO (Фильм-Экспорт - ЕА)

Reply to topic
DL-List and Torrent activity
Size:  1.37 GB   |    Registered:  4 years 3 months   |    Completed:  0 times

Seeder not seen: Never

 
   
 
 
Author Message

star21 ®

Gender: Female

Longevity: 4 years 4 months

Posts: 551945

Location: Екатеринбург

Post 02-Dec-2015 05:44

[Quote]

Мужские хлопоты / Man Trouble
Страна: США, Италия
Жанр: мелодрама, комедия
Год выпуска: 1992
Продолжительность: 01:39:52
Перевод: Профессиональный (многоголосый закадровый) Фильм-Экспорт - Екатеринбург Арт
Cубтитры: нет
Оригинальная аудиодорожка: нет
Режиссер: Боб Рейфелсон / Bob Rafelson
В ролях: Джек Николсон, Эллен Баркин, Гарри Дин Стэнтон, Беверли Д’Анджело, Майкл МакКин, Сол Рубинек
Описание: История любви жуликоватого тренера собак Хэрри, женатого на китаянке, к оперной певице из хора. У певицы неприятности — к ней в дом вломились, хотя ничего не украли.
Она решила приобрести сторожевого пса, а впридачу получила и собаковода, у которого куча долгов, и вынужден он от неё скрывать не только свой брак, но и настоящее имя.
Доп. информация:
Видеоряд взят из этой раздачи , за которую благодарим edich2.
За звуковую дорожку с лицензионной VHS от компании "Екатеринбург Арт" большое спасибо Fikaloid.
За создание видеоряда огромная благодарность ale_x2008, а за синхронизацию звуковой дорожки - JUSTKANT.
Роли озвучивали: Людмила Ильина, Людмила Гнилова, Вадим Андреев, Владимир Вихров, Дмитрий Полонский.
Сэмпл: https://www.sendspace.com/file/h8pb71
Качество видео: DVDRip
Формат видео: AVI
Видео: 720x400, 23.976 fps, MPEG-4 Visual, 1760 Kbps, XviD 73
Аудио: 48 KHz, AC3, 2 ch, 192 Kbps

MediaInfo

General
Complete name : C:\Users\Мужские хлопоты (ЕА).avi
Format : AVI
Format/Info : Audio Video Interleave
File size : 1.37 GiB
Duration : 1h 39mn
Overall bit rate : 1 961 Kbps
Director : ale_x2008
Genre : Comedy
Writing application : VirtualDubMod 1.5.10.2 (build 2540/release)
Writing library : VirtualDubMod build 2540/release
Original source form/Name : Movie
Comment : 10.09.2014
Video
ID : 0
Format : MPEG-4 Visual
Format profile : Advanced Simple@L5
Format settings, BVOP : 1
Format settings, QPel : No
Format settings, GMC : No warppoints
Format settings, Matrix : Default (MPEG)
Codec ID : XVID
Codec ID/Hint : XviD
Duration : 1h 39mn
Bit rate : 1 760 Kbps
Width : 720 pixels
Height : 400 pixels
Display aspect ratio : 16:9
Frame rate : 23.976 fps
Color space : YUV
Chroma subsampling : 4:2:0
Bit depth : 8 bits
Scan type : Progressive
Compression mode : Lossy
Bits/(Pixel*Frame) : 0.255
Stream size : 1.23 GiB (90%)
Writing library : XviD 73
Audio
ID : 1
Format : AC-3
Format/Info : Audio Coding 3
Mode extension : CM (complete main)
Format settings, Endianness : Big
Codec ID : 2000
Duration : 1h 39mn
Bit rate mode : Constant
Bit rate : 192 Kbps
Channel(s) : 2 channels
Channel positions : Front: L R
Sampling rate : 48.0 KHz
Bit depth : 16 bits
Compression mode : Lossy
Stream size : 137 MiB (10%)
Alignment : Split accross interleaves
Interleave, duration : 42 ms (1.00 video frame)
Interleave, preload duration : 500 ms

Скриншоты

To download the content you need:
1. Download and install torrent client [for Windows] or for mobile system
2. Click on [Download]
Attention.
If the test YOU are NOT a ROBOT - does not work, then You are using an outdated browser.
Install the current browser and click on [Download]

Do not work with Yandex browser. Uploading files to them is erroneous.
Security: torrent client is allowed by Kaspersky.

[en.asmlocator.ru].t4914.torrent 
Torrent: Registered [ 2015-12-02 05:40 ] · AB5CE58E149DE9EC93504826B3DD4E2C410645D0

Download .torrent

Download

14 KB

Status: checked
Completed: 0 times
Size: 1.37 GB
terms.php
[Profile] [PM]
Display posts:    
Reply to topic

Current time is: 29-Mar 17:40

All times are UTC ± 0



You cannot post new topics in this forum
You cannot reply to topics in this forum
You cannot edit your posts in this forum
You cannot delete your posts in this forum
You cannot vote in polls in this forum
You cannot attach files in this forum
You can download files in this forum
Верим фактам, а не вранью Путина! Факт, что Правительство ведёт Россию к истреблению.
Так как численность населения падает, даже не смотря на приток эмигрантов!
Русская нация вымирает и вырождается, смешиваясь с эмигрантами!
Факт, что военных и граждан предприятий заставляют голосовать за партию Единая Россия и Путина
ПОД СТРАХОМ УВОЛЬНЕНИЯ!
Нам не нужно Правительство, блокирующее личную жизнь, интернет, нарушающее сохранность данных.
Все эти действия финансируются за счёт народа!