Граф Макс / Il conte Max (Кристиан Де Сика / Christian De Sica) [1991, Италия, Франция, Комедия, DVDRip] VO (Urasiko)

Reply to topic
DL-List and Torrent activity
Size:  1.37 GB   |    Registered:  4 years 3 months   |    Completed:  1 time

Seeder not seen: 3 months 11 days

 
   
 
 
Author Message

star21 ®

Gender: Female

Longevity: 4 years 4 months

Posts: 551945

Location: Екатеринбург

Post 02-Dec-2015 05:44

[Quote]

Граф Макс / Il conte Max
Страна: Италия, Франция
Жанр: Комедия
Год выпуска: 1991
Продолжительность: 01:25:37
Перевод: Одноголосый закадровый Urasiko
Cубтитры: нет
Оригинальная аудиодорожка: нет
Режиссер: Кристиан Де Сика / Christian De Sica
В ролях: Кристиан Де Сика, Орнелла Мути, Галеаццо Бенти, Мария Меркадер, Анита Экберг, Антонелло Фассари, Франсуаз Брион, Бруно Кораццари, Раффаэла Дави, Бруно Дель Турко
Описание: Механик Альфредо (Кристиан Де Сика) – романтичный молодой человек мечтает о хорошей жизни. Он влюбляется в избалованную топ-модель Изабеллу (Орнелла Мути). Для того, чтобы покорить её сердце он решает пробиться в верхние слои общества. Ему помогает старый граф Макс (Галеаццо Бенти). Он дает Альфредо необходимые рекомендации и свою одежду, чтобы все его приняли...
Доп. информация: Релиз
Перевод с итальянского языка и озвучание: Urasiko
Фильм - ремейк на фильмы 1937 и 1957 года.
Сэмпл: http://multi-up.com/1064074
Качество видео: DVDRip
Формат видео: AVI
Видео: XviD MPEG-4, 672x512 (1.31:1), 25 fps, 2087 kbps avg, 0.24 bit/pixel
Аудио: AC-3, 48 KHz, 192 Kbps, 2 channels

MediaInfo

General
Complete name : D:\Conte Max\Il conte Max (1991) Ru.avi
Format : AVI
Format/Info : Audio Video Interleave
File size : 1.37 GiB
Duration : 1h 25mn
Overall bit rate : 2 289 Kbps
Writing application : VirtualDubMod 1.5.10.2 (build 2540/release)
Writing library : VirtualDubMod build 2540/release
Video
ID : 0
Format : MPEG-4 Visual
Format profile : Advanced Simple@L5
Format settings, BVOP : 1
Format settings, QPel : No
Format settings, GMC : No warppoints
Format settings, Matrix : Custom
Codec ID : XVID
Codec ID/Hint : XviD
Duration : 1h 25mn
Bit rate : 2 088 Kbps
Width : 672 pixels
Height : 512 pixels
Display aspect ratio : 4:3
Frame rate : 25.000 fps
Color space : YUV
Chroma subsampling : 4:2:0
Bit depth : 8 bits
Scan type : Progressive
Compression mode : Lossy
Bits/(Pixel*Frame) : 0.243
Stream size : 1.25 GiB (91%)
Writing library : XviD 64
Audio
ID : 1
Format : AC-3
Format/Info : Audio Coding 3
Mode extension : CM (complete main)
Format settings, Endianness : Big
Codec ID : 2000
Duration : 1h 25mn
Bit rate mode : Constant
Bit rate : 192 Kbps
Channel(s) : 2 channels
Channel positions : Front: L R
Sampling rate : 48.0 KHz
Bit depth : 16 bits
Compression mode : Lossy
Stream size : 118 MiB (8%)
Alignment : Split accross interleaves
Interleave, duration : 40 ms (1.00 video frame)
Interleave, preload duration : 500 ms

Скриншот c названием фильма

Скриншоты

[

To download the content you need:
1. Download and install torrent client [for Windows] or for mobile system
2. Click on [Download]
Attention.
If the test YOU are NOT a ROBOT - does not work, then You are using an outdated browser.
Install the current browser and click on [Download]

Do not work with Yandex browser. Uploading files to them is erroneous.
Security: torrent client is allowed by Kaspersky.

[en.asmlocator.ru].t4913.torrent 
Torrent: Registered [ 2015-12-02 05:40 ] · C361E940ADD8F793B5BFE56579D0F9F3934EC980

Download .torrent

Download

14 KB

Status: checked
Completed: 1 times
Size: 1.37 GB
terms.php
[Profile] [PM]
Display posts:    
Reply to topic

Current time is: 29-Mar 17:53

All times are UTC ± 0



You cannot post new topics in this forum
You cannot reply to topics in this forum
You cannot edit your posts in this forum
You cannot delete your posts in this forum
You cannot vote in polls in this forum
You cannot attach files in this forum
You can download files in this forum
Верим фактам, а не вранью Путина! Факт, что Правительство ведёт Россию к истреблению.
Так как численность населения падает, даже не смотря на приток эмигрантов!
Русская нация вымирает и вырождается, смешиваясь с эмигрантами!
Факт, что военных и граждан предприятий заставляют голосовать за партию Единая Россия и Путина
ПОД СТРАХОМ УВОЛЬНЕНИЯ!
Нам не нужно Правительство, блокирующее личную жизнь, интернет, нарушающее сохранность данных.
Все эти действия финансируются за счёт народа!