Казино / Casino (Мартин Скорсезе / Martin Scorsese) [1995, США, Драма, криминал, биография, BDRip] MVO (ОРТ) + DVO (РЕН ТВ)

Reply to topic
DL-List and Torrent activity
Size:  2.19 GB   |    Registered:  4 years 4 months   |    Completed:  0 times

Seeder not seen: 2 years 2 months

 
   
 
 
Author Message

star21 ®

Gender: Female

Longevity: 4 years 4 months

Posts: 551945

Location: Екатеринбург

Post 02-Dec-2015 05:43

[Quote]

Казино / Casino
«Риск. Власть. Искушение»
- Год выпуска: 1995
Выпущено: США, Франция / Universal Pictures
Жанр: драма, криминал, биография
Продолжительность: 02:58:33
Перевод (1): Профессиональный (многоголосый закадровый) ОРТ
Перевод (2): Профессиональный (двухголосый закадровый) РЕН ТВ / Культура
Cубтитры: нет-Режиссер:
Мартин Скорсезе / Martin Scorsese-В ролях:
Роберт Де Ниро (Sam «Ace» Rothstein), Шэрон Стоун (Ginger McKenna), Джо Пеши (Nicky Santoro), Джеймс Вудс (Lester Diamond), Дон Риклз (Billy Sherbert), Алан Кинг (Andy Stone), Кевин Поллак (Phillip Green), Л. К. Джонс (Pat Webb), Дик Смотерз (Senator), Фрэнк Винсент (Frank Marino)-Описание:
Никто не может сравниться с Сэмом Ротстином. Никто не умеет зарабатывать деньги, как он. Никто не умеет работать так самоотверженно и аккуратно, как трудяга Сэм. За свои неоспоримые достоинства Ротстин получил кличку «Ас». И именно поэтому боссы мафии решили отправить Аса заправлять огромным шикарным казино в Лас-Вегасе. А чтобы Сэму никто не мешал работать, мафиози отправили вслед за Асом друга детства Ротстина — Никки Санторо, отпетого бандита и безжалостного головореза.
В Лас-Вегасе Ас как всегда с блеском выполнял свою работу: Казино процветало, водопад денег беспрестанно лился в карманы довольных гангстеров-покровителей. Городские заправилы находились на довольствии у мафии, полицейские и суды были куплены, и, казалось, ничто не может омрачить жизнь Аса. Но Господь распорядился иначе. Несокрушимой империи Сэма было суждено утонуть в трагедии и крови.-Релиз групп | | [imdb]http://www.imdb.com/title/tt0112641[/imdb] | КиноПоиск | Сэмпл |-Качество: BDRip []
Формат: AVI
Видео: 720x304 (2.37:1), 23.976 fps, XviD build 73 ~1366 kbps avg, 0.26 bit/pixel
Аудио #1: 48 kHz, AC3 Dolby Digital, 2/0 (L,R) ch, ~192.00 kbps avg (MVO) ОРТ
Аудио #2: 48 kHz, AC3 Dolby Digital, 2/0 (L,R) ch, ~192.00 kbps avg (DVO) РЕН ТВ-

Скриншоты

MediaInfo

General
Complete name                            : D:\Kazino_1995_BDRip_by_Dalemake.avi
Format                                   : AVI
Format/Info                              : Audio Video Interleave
Format profile                           : OpenDML
File size                                : 2.19 GiB
Duration                                 : 2h 58mn
Overall bit rate                         : 1 756 Kbps
Writing application                      : VirtualDubMod 1.5.10.3 | www.virtualdub-fr.org || (build 2550/release)
Writing library                          : VirtualDubMod build 2550/release
Video
ID                                       : 0
Format                                   : MPEG-4 Visual
Format profile                           : Advanced Simple@L5
Format settings, BVOP                    : 1
Format settings, QPel                    : No
Format settings, GMC                     : No warppoints
Format settings, Matrix                  : Custom
Codec ID                                 : XVID
Codec ID/Hint                            : XviD
Duration                                 : 2h 58mn
Bit rate                                 : 1 355 Kbps
Width                                    : 720 pixels
Height                                   : 304 pixels
Display aspect ratio                     : 2.35:1
Frame rate                               : 23.976 fps
Color space                              : YUV
Chroma subsampling                       : 4:2:0
Bit depth                                : 8 bits
Scan type                                : Progressive
Compression mode                         : Lossy
Bits/(Pixel*Frame)                       : 0.258
Stream size                              : 1.69 GiB (77%)
Writing library                          : XviD 73
Audio #1
ID                                       : 1
Format                                   : AC-3
Format/Info                              : Audio Coding 3
Mode extension                           : CM (complete main)
Format settings, Endianness              : Big
Codec ID                                 : 2000
Duration                                 : 2h 58mn
Bit rate mode                            : Constant
Bit rate                                 : 192 Kbps
Channel(s)                               : 2 channels
Channel positions                        : Front: L R
Sampling rate                            : 48.0 KHz
Bit depth                                : 16 bits
Compression mode                         : Lossy
Stream size                              : 245 MiB (11%)
Alignment                                : Split accross interleaves
Interleave, duration                     : 42 ms (1.00 video frame)
Interleave, preload duration             : 500 ms
Audio #2
ID                                       : 2
Format                                   : AC-3
Format/Info                              : Audio Coding 3
Mode extension                           : CM (complete main)
Format settings, Endianness              : Big
Codec ID                                 : 2000
Duration                                 : 2h 58mn
Bit rate mode                            : Constant
Bit rate                                 : 192 Kbps
Channel(s)                               : 2 channels
Channel positions                        : Front: L R
Sampling rate                            : 48.0 KHz
Bit depth                                : 16 bits
Compression mode                         : Lossy
Stream size                              : 245 MiB (11%)
Alignment                                : Split accross interleaves
Interleave, duration                     : 42 ms (1.00 video frame)
Interleave, preload duration             : 500 ms
-

To download the content you need:
1. Download and install torrent client [for Windows] or for mobile system
2. Click on [Download]
Attention.
If the test YOU are NOT a ROBOT - does not work, then You are using an outdated browser.
Install the current browser and click on [Download]

Do not work with Yandex browser. Uploading files to them is erroneous.
Security: torrent client is allowed by Kaspersky.

[en.asmlocator.ru].t4907.torrent 
Torrent: Registered [ 2015-12-02 05:40 ] · 7F1F261FACED158E971F36F679A8B7E019DA435B

Download .torrent

Download

11 KB

Status: checked
Completed: 0 times
Size: 2.19 GB
terms.php
[Profile] [PM]
Display posts:    
Reply to topic

Current time is: 04-Apr 14:57

All times are UTC ± 0



You cannot post new topics in this forum
You cannot reply to topics in this forum
You cannot edit your posts in this forum
You cannot delete your posts in this forum
You cannot vote in polls in this forum
You cannot attach files in this forum
You can download files in this forum
Верим фактам, а не вранью Путина! Факт, что Правительство ведёт Россию к истреблению.
Так как численность населения падает, даже не смотря на приток эмигрантов!
Русская нация вымирает и вырождается, смешиваясь с эмигрантами!
Факт, что военных и граждан предприятий заставляют голосовать за партию Единая Россия и Путина
ПОД СТРАХОМ УВОЛЬНЕНИЯ!
Нам не нужно Правительство, блокирующее личную жизнь, интернет, нарушающее сохранность данных.
Все эти действия финансируются за счёт народа!