Джефферсон в Париже / Jefferson in Paris (Джеймс Айвори / James Ivory) [1995, Франция, США, исторический, биография, драма, WEB-DLRip] DVO (студия «Лайко» (СПб)) + Original Eng

Reply to topic
DL-List and Torrent activity
Size:  2.07 GB   |    Registered:  4 years 7 months   |    Completed:  0 times

Seeder not seen: Never

 
   
 
 
Author Message

star21 ®

Gender: Female

Longevity: 4 years 8 months

Posts: 551945

Location: Екатеринбург

Post 02-Dec-2015 05:43

[Quote]

Джефферсон в Париже / Jefferson in Paris
Страна: Франция, США
Жанр: исторический, биография, драма
Год выпуска: 1995
Продолжительность: 02:19:24
Перевод: Профессиональный (двухголосый закадровый) студия «Лайко» (СПб)
Cубтитры: нет
Оригинальная аудиодорожка: английский
Режиссер: Джеймс Айвори / James Ivory
В ролях: Ник Нолт, Гвинет Пэлтроу, Тэнди Ньютон, Сет Гиллиам, Тодд Бойс, Беатрис Камюра, Найджел Уитми, Николя Сильбер, Кэтрин Сами, Лионель Робер, Станислас Карре де Мальберг, Жан Рюпер, Ивет Пети, Фредерик ван ден Дрише, Юмбер Бальсан, Эрик Берг, Боб Сессионс, Джессика Ллойд, Джеффри Рибье, Марк Тиссо, Грета Скакки, Саймон Кэллоу, Ламбер Вильсон, Эльза Зильберштейн, Жан-Пьер Омон, Жан-Франсуа Перрье, Бруно Пуцулу, Филипп Мариэль, Филипп Букле, Дэвид Гасман, Оливье Гальфьоне, Энтони Валентайн, Стив Кальфа, Андре Жюльен, Жак Эрлен, Элизабет Каза, Мари-Лоранс, Агата Де Ла Булае
Описание: Томас Джефферсон известен как третий президент Соединенных Штатов и один из крестных отцов американской независимости. В его жизни был период 1784-1789 г.г. , когда он служил послом во Франции при дворе Людовика XVI. Именно этот период воссоздан английским режиссером Джеймсом Айвори. Для Айвори характерно точное изображение деталей жизни и быта, правдоподобный исторический фон, драматизм и выверенность сюжета. Легендарные исторические личности предстают людьми, не лишенными слабостей и недостатков.
Доп. информация: Сорбственный рип.
Сэмпл: http://multi-up.com/1064261
Качество видео: WEB-DLRip
Формат видео: AVI
Видео: XviD, 720x400 (16:9), 25.000 fps, 1725 kbps avg
Аудио: Russian AC3 Dolby Digital, 48 kHz, 2/0 (L,R) ch, 192.00 kbps avg
Аудио 2: English AC3 Dolby Digital, 48 kHz, 2/0 (L,R) ch, 192.00 kbps avg
Аудио 3:

MediaInfo

General
Complete name : F:\Jefferson In Paris_1995\Jefferson In Paris.1995 WEB-DRip.DVO.Layko.avi
Format : AVI
Format/Info : Audio Video Interleave
Format profile : OpenDML
File size : 2.07 GiB
Duration : 2h 19mn
Overall bit rate : 2 128 Kbps
Writing application : VirtualDubModRus 1.5.10.2 (build 2542/release)
Writing library : VirtualDubMod build 2542/release
Video
ID : 0
Format : MPEG-4 Visual
Format profile : Advanced Simple@L5
Format settings, BVOP : 1
Format settings, QPel : No
Format settings, GMC : No warppoints
Format settings, Matrix : Default (MPEG)
Codec ID : XVID
Codec ID/Hint : XviD
Duration : 2h 19mn
Bit rate : 1 725 Kbps
Width : 720 pixels
Height : 400 pixels
Display aspect ratio : 16:9
Frame rate : 23.976 fps
Color space : YUV
Chroma subsampling : 4:2:0
Bit depth : 8 bits
Scan type : Progressive
Compression mode : Lossy
Bits/(Pixel*Frame) : 0.250
Stream size : 1.68 GiB (81%)
Writing library : XviD 73
Audio #1
ID : 1
Format : AC-3
Format/Info : Audio Coding 3
Mode extension : CM (complete main)
Format settings, Endianness : Big
Codec ID : 2000
Duration : 2h 19mn
Bit rate mode : Constant
Bit rate : 192 Kbps
Channel(s) : 2 channels
Channel positions : Front: L R
Sampling rate : 48.0 KHz
Compression mode : Lossy
Stream size : 191 MiB (9%)
Alignment : Split accross interleaves
Interleave, duration : 42 ms (1.00 video frame)
Interleave, preload duratio : 500 ms
Audio #2
ID : 2
Format : AC-3
Format/Info : Audio Coding 3
Mode extension : CM (complete main)
Format settings, Endianness : Big
Codec ID : 2000
Duration : 2h 19mn
Bit rate mode : Constant
Bit rate : 192 Kbps
Channel(s) : 2 channels
Channel positions : Front: L R
Sampling rate : 48.0 KHz
Compression mode : Lossy
Stream size : 191 MiB (9%)
Alignment : Split accross interleaves
Interleave, duration : 42 ms (1.00 video frame)
Interleave, preload duratio : 500 ms

Скриншоты

Сравнение

Перевод идентичен.
http://screenshotcomparison.com/comparison/140415/picture:0

To download the content you need:
1. Download and install torrent client [for Windows] or for mobile system
2. Click on [Download]
Attention.
If the test YOU are NOT a ROBOT - does not work, then You are using an outdated browser.
Install the current browser and click on [Download]

Do not work with Yandex browser. Uploading files to them is erroneous.
Security: torrent client is allowed by Kaspersky.

[en.asmlocator.ru].t4906.torrent 
Torrent: Registered [ 2015-12-02 05:40 ] · CCB5722F1631526D4A49EA3D98D3CB4D276E3218

Download .torrent

Download

11 KB

Status: checked
Completed: 0 times
Size: 2.07 GB
terms.php
[Profile] [PM]
Display posts:    
Reply to topic

Current time is: 11-Jul 21:28

All times are UTC ± 0



You cannot post new topics in this forum
You cannot reply to topics in this forum
You cannot edit your posts in this forum
You cannot delete your posts in this forum
You cannot vote in polls in this forum
You cannot attach files in this forum
You can download files in this forum
Верим фактам, а не вранью Путина! Факт, что Правительство ведёт Россию к истреблению.
Так как численность населения падает, даже не смотря на приток эмигрантов!
Русская нация вымирает и вырождается, смешиваясь с эмигрантами!
Факт, что военных и граждан предприятий заставляют голосовать за партию Единая Россия и Путина
ПОД СТРАХОМ УВОЛЬНЕНИЯ!
Нам не нужно Правительство, блокирующее личную жизнь, интернет, нарушающее сохранность данных.
Все эти действия финансируются за счёт народа!