Френк и Джесси / Братья Бандиты / Frank & Jesse (Роберт Борис / Robert Boris) [1995, США, вестерн, биографическая драма, DVDRip-AVC] DVO (Kino Polska) + DVO (Ren-TV) + AVO (Гаврилов) + Original (Eng)

Reply to topic
DL-List and Torrent activity
Size:  1.46 GB   |    Registered:  4 years 4 months   |    Completed:  1 time

Seeder not seen: 5 months 18 days

 
   
 
 
Author Message

star21 ®

Gender: Female

Longevity: 4 years 5 months

Posts: 551945

Location: Екатеринбург

Post 02-Dec-2015 05:43

[Quote]

Френк и Джесси
Frank & Jesse- Страна: США
Жанр: вестерн, биографическая драма
Год выпуска: 1995
Продолжительность: 01:41:37Перевод 1: Профессиональный (двухголосый закадровый) по заказу Kino Polska на производственно-технической базе Студии "Акцент"
Перевод 2: Профессиональный (двухголосый закадровый) по заказу Ren-TV, текст читали Павел Кипнис и Татьяна Васильева
Перевод 3: Авторский (одноголосый закадровый) Андрей Гаврилов
Cубтитры: нет
Оригинальная аудиодорожка: английский
Режиссер: Роберт Борис / Robert Boris
В ролях: Роб Лоу / Rob Lowe (Jesse James), Билл Пэкстон / Bill Paxton (Frank James), Рэнди Трэвис / Randy Travis (Cole Younger), Дана Уиллер-Николсон / Dana Wheeler-Nicholson (Annie), Мария Питилло / Maria Pitillo (Zee), Шон Патрик Флэнери / Sean Patrick Flanery (Zack Murphy), Тодд Филд / Todd Field (Bob Younger), Алексис Аркетт / Alexis Arquette (Charlie Ford), Дэвид Аркетт / David Arquette (uncredited)
Описание: Дикая Америка 19-го века. Побеждает тот, кто стреляет первым. Но жажда мщения стучит в сердца униженных и оскорбленных. Закончилась Гражданская война между Севером и Югом. Север победил, и на земли Юга вторглись орды безжалостных "оккупантов": прокладывая железную дорогу, банкиры-северяне не останавливались ни перед убийствами тех, кто не хотел отдавать за бесценок свою землю, ни перед иными преступлениями. Практически на глазах Фрэнка и Джесси Джеймсов наемный киллер застрелил их отца и младшего брата. Братья отомстили за погибших. А потом вместе с такими же изгоями, братьями Янгер, принялись грабить банки и почтовые поезда. В погоню за преступниками устремился Аллен Пинкертон — уголовный мир Америки не знал более беспощадного врага…
Доп. информация: Исходник . Озвучка Ren-TV взята с раздачи . Озвучка Kino Polska с показа Filmbox IPTV.
[imdb]http://www.imdb.com/title/tt0109835[/imdb]
Качество видео: DVDRip-AVC
Формат видео: MKV
Видео: AVC (H.264), 688x512 (4:3), 25 fps, ~1315 kbps avg, 0.149 bit/pixel
Аудио 1: MPEG Audio 2, 2 ch, 48 kHz, ~128.00 kbps avg - Kino Polska
Аудио 2: AC3, 2/0 (L,R) ch, 48 kHz, ~192 kbps avg - Ren-TV
Аудио 3: AC3, 2/0 (L,R) ch, 48 kHz, ~192 kbps avg - Андрей Гаврилов
Аудио 4: AC3, 2/0 (L,R) ch, 48 kHz, ~224 kbps avg - English

MediaInfo

ОбщееУникальный идентификатор                 : 181367722795665873641003508503800697197 (0x8872271FB82A9E4B8C98114BB4BFD16D)Полное имя                               : F:\My Torrents 3\[apreder]Frank_&_Jesse(1995)DVDRip.mkvФормат                                   : MatroskaВерсия формата                           : Version 2Размер файла                             : 1,46 ГбайтПродолжительность                        : 1 ч. 41 м.Общий поток                              : 2054 Кбит/секНазвание фильма                          : Frank & Jesse (1995)Дата кодирования                         : UTC 2015-08-29 11:50:27Программа кодирования                    : mkvmerge v8.3.0 ('Over the Horizon') 64bitБиблиотека кодирования                   : libebml v1.3.1 + libmatroska v1.4.2Attachements                             : cover.jpg / cover_small.jpg
ВидеоИдентификатор : 1Формат : AVCФормат/Информация : Advanced Video CodecПрофиль формата : High@L4.1Параметр CABAC формата : ДаПараметр ReFrames формата : 9 кадровИдентификатор кодека : V_MPEG4/ISO/AVCПродолжительность : 1 ч. 41 м.Битрейт : 1315 Кбит/секШирина : 688 пикселейВысота : 512 пикселейСоотношение сторон : 4:3Режим частоты кадров : ПостоянныйЧастота кадров : 25,000 кадров/секЦветовое пространство : YUVСубдискретизация насыщенности : 4:2:0Битовая глубина : 8 битТип развёртки : ПрогрессивнаяБит/(Пиксели*Кадры) : 0.149Размер потока : 928 Мбайт (62%)Библиотека кодирования : x264 core 148 r2579 73ae2d1Настройки программы : cabac=1 / ref=9 / deblock=1:-1:-1 / analyse=0x3:0x133 / me=umh / subme=10 / psy=1 / psy_rd=1.00:0.15 / mixed_ref=1 / me_range=24 / chroma_me=1 / trellis=2 / 8x8dct=1 / cqm=0 / deadzone=21,11 / fast_pskip=1 / chroma_qp_offset=-3 / threads=6 / lookahead_threads=1 / sliced_threads=0 / nr=0 / decimate=1 / interlaced=0 / bluray_compat=0 / constrained_intra=0 / bframes=9 / b_pyramid=2 / b_adapt=1 / b_bias=0 / direct=3 / weightb=1 / open_gop=0 / weightp=2 / keyint=250 / keyint_min=25 / scenecut=40 / intra_refresh=0 / rc_lookahead=60 / rc=2pass / mbtree=1 / bitrate=1315 / ratetol=1.0 / qcomp=0.60 / qpmin=0 / qpmax=69 / qpstep=4 / cplxblur=20.0 / qblur=0.5 / vbv_maxrate=62500 / vbv_bufsize=78125 / nal_hrd=none / filler=0 / ip_ratio=1.40 / aq=1:1.00Default : ДаForced : Нет
Аудио #1Идентификатор : 2Формат : MPEG AudioВерсия формата : Version 1Профиль формата : Layer 2Идентификатор кодека : A_MPEG/L2Идентификатор кодека/Подсказка : MP2Продолжительность : 1 ч. 41 м.Вид битрейта : ПостоянныйБитрейт : 128 Кбит/секКаналы : 2 каналаЧастота : 48,0 КГцМетод сжатия : С потерямиРазмер потока : 93,0 Мбайт (6%)Заголовок : DVO Kino PolskaЯзык : RussianDefault : ДаForced : Нет
Аудио #2Идентификатор : 3Формат : AC-3Формат/Информация : Audio Coding 3Расширение режима : CM (complete main)Параметр Endianness формата : BigИдентификатор кодека : A_AC3Продолжительность : 1 ч. 41 м.Вид битрейта : ПостоянныйБитрейт : 192 Кбит/секКаналы : 2 каналаРасположение каналов : Front: L RЧастота : 48,0 КГцМетод сжатия : С потерямиРазмер потока : 140 Мбайт (9%)Заголовок : DVO Ren-TVЯзык : RussianDefault : НетForced : Нет
Аудио #3Идентификатор : 4Формат : AC-3Формат/Информация : Audio Coding 3Расширение режима : CM (complete main)Параметр Endianness формата : BigИдентификатор кодека : A_AC3Продолжительность : 1 ч. 41 м.Вид битрейта : ПостоянныйБитрейт : 192 Кбит/секКаналы : 2 каналаРасположение каналов : Front: L RЧастота : 48,0 КГцМетод сжатия : С потерямиРазмер потока : 140 Мбайт (9%)Заголовок : AVO Андрей ГавриловЯзык : RussianDefault : НетForced : Нет
Аудио #4Идентификатор : 5Формат : AC-3Формат/Информация : Audio Coding 3Расширение режима : CM (complete main)Параметр Endianness формата : BigИдентификатор кодека : A_AC3Продолжительность : 1 ч. 41 м.Вид битрейта : ПостоянныйБитрейт : 224 Кбит/секКаналы : 2 каналаРасположение каналов : Front: L RЧастота : 48,0 КГцМетод сжатия : С потерямиРазмер потока : 163 Мбайт (11%)Язык : EnglishDefault : НетForced : Нет

Скриншот c названием фильма

Скриншоты


Резервные скриншоты


- [2'578]

To download the content you need:
1. Download and install torrent client [for Windows] or for mobile system
2. Click on [Download]
Attention.
If the test YOU are NOT a ROBOT - does not work, then You are using an outdated browser.
Install the current browser and click on [Download]

Do not work with Yandex browser. Uploading files to them is erroneous.
Security: torrent client is allowed by Kaspersky.

[en.asmlocator.ru].t4903.torrent 
Torrent: Registered [ 2015-12-02 05:40 ] · 336260CE155A118605B4DA251A4E7695791F2E92

Download .torrent

Download

15 KB

Status: checked
Completed: 1 times
Size: 1.46 GB
terms.php
[Profile] [PM]
Display posts:    
Reply to topic

Current time is: 07-Apr 19:40

All times are UTC ± 0



You cannot post new topics in this forum
You cannot reply to topics in this forum
You cannot edit your posts in this forum
You cannot delete your posts in this forum
You cannot vote in polls in this forum
You cannot attach files in this forum
You can download files in this forum
Верим фактам, а не вранью Путина! Факт, что Правительство ведёт Россию к истреблению.
Так как численность населения падает, даже не смотря на приток эмигрантов!
Русская нация вымирает и вырождается, смешиваясь с эмигрантами!
Факт, что военных и граждан предприятий заставляют голосовать за партию Единая Россия и Путина
ПОД СТРАХОМ УВОЛЬНЕНИЯ!
Нам не нужно Правительство, блокирующее личную жизнь, интернет, нарушающее сохранность данных.
Все эти действия финансируются за счёт народа!