Зловещие мертвецы 3: Армия тьмы / Army of Darkness (Сэм Рэйми / Sam Raimi) [1992, США, ужасы, фэнтези, боевик, комедия, DVDRip-AVC] [Театральная версия / Theatrical Version] [Fullscreen] MVO

Reply to topic
DL-List and Torrent activity
Size:  2.18 GB   |    Registered:  4 years 4 months   |    Completed:  0 times

Seeder not seen: Never

 
   
 
 
Author Message

star21 ®

Gender: Female

Longevity: 4 years 4 months

Posts: 551945

Location: Екатеринбург

Post 02-Dec-2015 05:43

[Quote]

Зловещие мертвецы 3: Армия тьмы / Army of Darkness
Театральная версия / Theatrical Version
Год выпуска: 1992
Страна: США
Жанр: ужасы, фэнтези, боевик, комедия
Продолжительность: 01:20:53
Перевод: профессиональный многоголосый закадровый
Режиссёр: Сэм Рэйми /Sam Raimi/
В ролях: Брюс Кэмпбелл /Bruce Campbell/, Эмбет Дэвидц /Embeth Davidtz/, Маркус Гилберт /Marcus Gilbert/, Йен Эберкромби / Ian Abercrombie/, Ричард Гроув /Richard Grove/, Тимоти Патрик Куилл /Timothy Patrick Quill/, Майкл Эрл Рейд /Michael Earl Reid/
Описание:
По воле случая Эш переносится в далекое прошлое. Вместе со своим автомобилем и двухстволкой он оказывается в 13 веке. В этом мрачном средневековье люди страдают от сил тьмы. Бедняга Эш был пойман добропорядочными гражданами и помещен в местную тюрьму. Он с трудом смог убедить судью в том, что он вовсе не шпион из враждебного королевства. Он решает помочь людям в битве с врагами.
Чтобы победить, он должен восстановить Некрономикон, старинную магическую книгу, которая поможет ему вернуться в свое время. По неосторожности Эш выпустил на волю Армию тьмы. Как победить живых мертвецов?
Дополнительная информация:
[imdb]http://www.imdb.com/title/tt0106308[/imdb]: 7.6/10 (116,528 votes)
Рейтинг фильма КиноПоиск.Ru→: 7.544 (19 222 голос)
Качество: DVDRip-AVC
Контейнер: MKV
Видеопоток: 720x480@720x540, 23.976 fps, x264 ~3640 kbps
Аудиопоток: DD 2.0, 48 kHz, 224 kbps | профессиональный многоголосый закадровый
Сэмпл: Яндекс.Диск→, multi-up→, sendspace→

x264 Log

x264 [info]: frame I:717   Avg QP:15.88  size: 46753
x264 [info]: frame P:24799 Avg QP:18.37  size: 30498
x264 [info]: frame B:90835 Avg QP:20.61  size: 15610
x264 [info]: consecutive B-frames:  1.8%  2.3% 12.4% 11.3%  6.9% 60.9%  1.7%  0.6%  0.4%  0.3%  0.2%  0.4%  0.2%  0.2%  0.1%  0.1%  0.3%
encoded 116351 frames, 8.23 fps, 3639.57 kb/s

MediaInfo

General
Unique ID                                : 176019555164696896076792857742474615824 (0x846C2219FB2D6CB3A13D72747B4E1C10)
Complete name                            : Army.of.Darkness.1992.DVDRip.x264.DD-d0ber.mkv
Format                                   : Matroska
Format version                           : Version 4 / Version 2
File size                                : 2.18 GiB
Duration                                 : 1h 21mn
Overall bit rate                         : 3 858 Kbps
Movie name                               : Army of Darkness (1992) DVDRip by d0ber.maNN
Encoded date                             : UTC 2015-08-29 11:52:02
Writing application                      : mkvmerge v7.8.0 ('River Man') 64bit built on Mar 27 2015 16:31:37
Writing library                          : libebml v1.3.1 + libmatroska v1.4.2
DURATION                                 : 01:21:03.232000000
NUMBER_OF_FRAMES                         : 151976
NUMBER_OF_BYTES                          : 136170496
_STATISTICS_WRITING_APP                  : mkvmerge v7.8.0 ('River Man') 64bit built on Mar 27 2015 16:31:37
_STATISTICS_WRITING_DATE_UTC             : 2015-08-29 11:52:02
_STATISTICS_TAGS                         : BPS DURATION NUMBER_OF_FRAMES NUMBER_OF_BYTES
Video
ID                                       : 1
Format                                   : AVC
Format/Info                              : Advanced Video Codec
Format profile                           : High@L4.1
Format settings, CABAC                   : Yes
Format settings, ReFrames                : 16 frames
Codec ID                                 : V_MPEG4/ISO/AVC
Duration                                 : 1h 21mn
Bit rate                                 : 3 640 Kbps
Width                                    : 720 pixels
Height                                   : 480 pixels
Display aspect ratio                     : 4:3
Frame rate mode                          : Constant
Frame rate                               : 23.976 fps
Standard                                 : NTSC
Color space                              : YUV
Chroma subsampling                       : 4:2:0
Bit depth                                : 8 bits
Scan type                                : Progressive
Bits/(Pixel*Frame)                       : 0.439
Stream size                              : 2.01 GiB (92%)
Title                                    : 720x480@720x540, 23.976 fps, x264 ~3640 kbps
Writing library                          : x264 core 148 r2579 73ae2d1
Encoding settings                        : cabac=1 / ref=16 / deblock=1:-3:-3 / analyse=0x3:0x133 / me=umh / subme=10 / psy=1 / psy_rd=1.00:0.00 / mixed_ref=1 / me_range=64 / chroma_me=1 / trellis=2 / 8x8dct=1 / cqm=0 / deadzone=21,11 / fast_pskip=0 / chroma_qp_offset=-2 / threads=6 / lookahead_threads=1 / sliced_threads=0 / nr=0 / decimate=1 / interlaced=0 / bluray_compat=0 / constrained_intra=0 / bframes=16 / b_pyramid=2 / b_adapt=2 / b_bias=0 / direct=3 / weightb=1 / open_gop=0 / weightp=2 / keyint=240 / keyint_min=23 / scenecut=40 / intra_refresh=0 / rc_lookahead=240 / rc=2pass / mbtree=0 / bitrate=3640 / ratetol=1.0 / qcomp=0.75 / qpmin=0 / qpmax=69 / qpstep=4 / cplxblur=20.0 / qblur=0.5 / vbv_maxrate=62500 / vbv_bufsize=78125 / nal_hrd=none / filler=0 / ip_ratio=1.40 / pb_ratio=1.30 / aq=1:0.80
Language                                 : English
Default                                  : Yes
Forced                                   : No
Audio
ID                                       : 2
Format                                   : AC-3
Format/Info                              : Audio Coding 3
Mode extension                           : CM (complete main)
Format settings, Endianness              : Big
Codec ID                                 : A_AC3
Duration                                 : 1h 21mn
Bit rate mode                            : Constant
Bit rate                                 : 224 Kbps
Channel(s)                               : 2 channels
Channel positions                        : Front: L R
Sampling rate                            : 48.0 KHz
Bit depth                                : 16 bits
Compression mode                         : Lossy
Stream size                              : 130 MiB (6%)
Title                                    : RUS MVO DD 2.0, 48 kHz, 224 kbps
Language                                 : Russian
Default                                  : Yes
Forced                                   : No

Скриншоты


Source vs. Rip


Fullscreen vs. Widescreen


To download the content you need:
1. Download and install torrent client [for Windows] or for mobile system
2. Click on [Download]
Attention.
If the test YOU are NOT a ROBOT - does not work, then You are using an outdated browser.
Install the current browser and click on [Download]

Do not work with Yandex browser. Uploading files to them is erroneous.
Security: torrent client is allowed by Kaspersky.

[en.asmlocator.ru].t4902.torrent 
Torrent: Registered [ 2015-12-02 05:40 ] · AF6DC754BAD21536C66DEC31E24E30B4EC0EE689

Download .torrent

Download

11 KB

Status: checked
Completed: 0 times
Size: 2.18 GB
terms.php
[Profile] [PM]
Display posts:    
Reply to topic

Current time is: 03-Apr 11:15

All times are UTC ± 0



You cannot post new topics in this forum
You cannot reply to topics in this forum
You cannot edit your posts in this forum
You cannot delete your posts in this forum
You cannot vote in polls in this forum
You cannot attach files in this forum
You can download files in this forum
Верим фактам, а не вранью Путина! Факт, что Правительство ведёт Россию к истреблению.
Так как численность населения падает, даже не смотря на приток эмигрантов!
Русская нация вымирает и вырождается, смешиваясь с эмигрантами!
Факт, что военных и граждан предприятий заставляют голосовать за партию Единая Россия и Путина
ПОД СТРАХОМ УВОЛЬНЕНИЯ!
Нам не нужно Правительство, блокирующее личную жизнь, интернет, нарушающее сохранность данных.
Все эти действия финансируются за счёт народа!