Искушение / Temptation (Стрэтфорд Хэмилтон / Strathford Hamilton) [1994, США, Триллер, DVDRip] AVO Горчаков + AVO Володарский

Reply to topic
DL-List and Torrent activity
Size:  1.46 GB   |    Registered:  4 years 4 months   |    Completed:  0 times

Seeder not seen: Never

 
   
 
 
Author Message

star21 ®

Gender: Female

Longevity: 4 years 4 months

Posts: 551945

Location: Екатеринбург

Post 02-Dec-2015 05:43

[Quote]

Искушение / Temptation
Страна: США
Жанр: Триллер
Год выпуска: 1994
Продолжительность: 01:31:47
Перевод: Авторский (одноголосый закадровый) В. Горчаков
Перевод 2: Авторский (одноголосый закадровый) Л. Володарский
Cубтитры: нет
Режиссер: Стрэтфорд Хэмилтон / Strathford Hamilton
В ролях: Джефф Фэйи , Элисон Дуди, Филип Каснофф , Патриция Дархэм , Галин Горг , Дэвид Кит , Дуглас Барр , Джон Арчи
Описание: Двое компаньонов - Эдди Ланарски (Джефф Фэйхи) и Майкл Реддик (Филип Кэснофф) - решили пойти на аферу: взорвать корабль Реддика, чтобы получить огромную страховку. Взорвали. Да вот Майкл оказался подлецом. Сам выбрался до взрыва, а веревку, по которой поднимался Эдди, подрезал. И Эдди упал. Не погиб, но получил срок тюремного заключения. А когда вышел, решил посмотреть, чем там занимается его бывший напарник, который успел засчет полученной страховки разбогатеть и жениться на дочке другого своего компаньона-миллионера, затем отдавшего Богу душу. Пробрался Эдди на яхту, принадлежавшую Майклу, втерся в доверие к его жене Ли (Элисон Дуди), стал капитаном яхты и ждет прибытия самого Майкла. Яхта же, между прочим, отправляется на Каймановы острова. Так что "смертельные страсти" развернутся не на шутку...
Доп. информация: Дорога Л.Володарского синхронизирована из раздачи LDE1983
Дорога В. Горчакова найдена в сети
Сэмпл: https://www.sendspace.com/file/1yo3wr
Качество видео: DVDRip
Формат видео: AVI
Видео: XviD MPEG-4 , 640x480 (1.33:1) , 23.976 fps , 1 881 Kbps
Аудио: AC3 , 48 kHz , 192.00 kbps avg , 2/0 (L,R) ch В.Горчаков
Аудио 2: AC3 , 48 kHz , 192.00 kbps avg , 2/0 (L,R) ch Л. Володарский

MediaInfo

Complete name Искушение 1994.avi
Format : AVI
Format/Info : Audio Video Interleave
File size : 1.46 GiB
Duration : 1h 31mn
Overall bit rate : 2 279 Kbps
Writing application : VirtualDubMod 1.5.10.3 | www.virtualdub-fr.org || (build 2550/release)
Writing library : VirtualDubMod build 2550/release
Video
ID : 0
Format : MPEG-4 Visual
Format profile : Advanced Simple@L5
Format settings, BVOP : 1
Format settings, QPel : No
Format settings, GMC : No warppoints
Format settings, Matrix : Default (MPEG)
Codec ID : XVID
Codec ID/Hint : XviD
Duration : 1h 31mn
Bit rate : 1 881 Kbps
Width : 640 pixels
Height : 480 pixels
Display aspect ratio : 4:3
Frame rate : 23.976 fps
Color space : YUV
Chroma subsampling : 4:2:0
Bit depth : 8 bits
Scan type : Progressive
Compression mode : Lossy
Bits/(Pixel*Frame) : 0.255
Stream size : 1.21 GiB (83%)
Writing library : XviD 1.2.1 (UTC 2008-12-04)
Audio #1
ID : 1
Format : AC-3
Format/Info : Audio Coding 3
Mode extension : CM (complete main)
Format settings, Endianness : Big
Codec ID : 2000
Duration : 1h 31mn
Bit rate mode : Constant
Bit rate : 192 Kbps
Channel(s) : 2 channels
Channel positions : Front: L R
Sampling rate : 48.0 KHz
Compression mode : Lossy
Stream size : 126 MiB (8%)
Alignment : Split accross interleaves
Interleave, duration : 42 ms (1.00 video frame)
Interleave, preload duratio : 500 ms
Audio #2
ID : 2
Format : AC-3
Format/Info : Audio Coding 3
Mode extension : CM (complete main)
Format settings, Endianness : Big
Codec ID : 2000
Duration : 1h 31mn
Bit rate mode : Constant
Bit rate : 192 Kbps
Channel(s) : 2 channels
Channel positions : Front: L R
Sampling rate : 48.0 KHz
Compression mode : Lossy
Stream size : 126 MiB (8%)
Alignment : Split accross interleaves
Interleave, duration : 42 ms (1.00 video frame)
Interleave, preload duratio : 500 ms

To download the content you need:
1. Download and install torrent client [for Windows] or for mobile system
2. Click on [Download]
Attention.
If the test YOU are NOT a ROBOT - does not work, then You are using an outdated browser.
Install the current browser and click on [Download]

Do not work with Yandex browser. Uploading files to them is erroneous.
Security: torrent client is allowed by Kaspersky.

[en.asmlocator.ru].t4901.torrent 
Torrent: Registered [ 2015-12-02 05:40 ] · B1E1CFCA8BCCB14485570942B4018208BA58EECC

Download .torrent

Download

15 KB

Status: checked
Completed: 0 times
Size: 1.46 GB
terms.php
[Profile] [PM]
Display posts:    
Reply to topic

Current time is: 04-Apr 15:58

All times are UTC ± 0



You cannot post new topics in this forum
You cannot reply to topics in this forum
You cannot edit your posts in this forum
You cannot delete your posts in this forum
You cannot vote in polls in this forum
You cannot attach files in this forum
You can download files in this forum
Верим фактам, а не вранью Путина! Факт, что Правительство ведёт Россию к истреблению.
Так как численность населения падает, даже не смотря на приток эмигрантов!
Русская нация вымирает и вырождается, смешиваясь с эмигрантами!
Факт, что военных и граждан предприятий заставляют голосовать за партию Единая Россия и Путина
ПОД СТРАХОМ УВОЛЬНЕНИЯ!
Нам не нужно Правительство, блокирующее личную жизнь, интернет, нарушающее сохранность данных.
Все эти действия финансируются за счёт народа!