Зло / Отсутствие добра / Absence of the good (Джон Флинн / John Flynn) [1999, США, триллер, детектив, DVDRip] MVO (R5 от «Видеосервис»)

Reply to topic
DL-List and Torrent activity
Size:  1.37 GB   |    Registered:  4 years 4 months   |    Completed:  0 times

Seeder not seen: Never

 
   
 
 
Author Message

star21 ®

Gender: Female

Longevity: 4 years 4 months

Posts: 551945

Location: Екатеринбург

Post 02-Dec-2015 05:43

[Quote]

Зло / Отсутствие добра / Absence of the good
Страна: США
Жанр: триллер, детектив
Год выпуска: 1999
Продолжительность: 01:34:27
Перевод: Профессиональный (многоголосый закадровый) R5 от «Видеосервис»
Cубтитры: нет
Режиссер: Джон Флинн / John Flynn
В ролях: Стивен Болдуин (Caleb Barnes), Тайн Дейли (Dr. Marcia Lyons), Роберт Лайл Неппер (Glenn Dwyer), Сайлас Уэйр Митчелл (Jack Gaskin), Элизабет Барондес (Bailey), Брайан Ли Боак (Joe Marshall), Дженнифер Бакалев (Sheila Gaskin), Роджер Каллард (Evans), Далин Кристиансен (Mr. Gummer), Аллен Гарфилд (Lt. Paul Taylor), Фрэнк Герриш (Roger)
Описание: В тихом пригороде Солт-Лейка, похоже, завелся маньяк. Изверг проникает в дома средь бела дня, поджидает хозяев и забивает их насмерть с помощью молотка. Кроме того, покидать место преступления душегуб отнюдь не спешит. Наоборот, сотворив своё кровавое дело, убийца потом проводит в жилищах жертв довольно долгое время. Может прибраться, приготовить еду, постирать, буднично оставить на холодильнике записку...
Кто же он? И каковы его мотивы?..
Над этими вопросами ломает голову детектив Калеб Барнс, переживающий личную трагедию – потерю сына.
Удастся ли Калебу быстро найти ответы и остановить Зло до того, как счет трупов пойдет на десятки? (© italy777)
Сэмпл: https://yadi.sk/i/0ixBeT9bik8D8
Качество видео: DVDRip by olegek70
Формат видео: AVI
Видео: 720x400 (1.80:1), 25 fps, XviD build 50 ~1676 kbps avg, 0.23 bit/pixel
Аудио: 48 kHz, AC3 Dolby Digital, 3/2 (L,C,R,l,r) ch, ~384 kbps

MediaInfo

Отсутствие добра - Absence of the good.avi
Format : AVI
Format/Info : Audio Video Interleave
File size : 1.37 GiB
Duration : 1h 34mn
Overall bit rate : 2 071 Kbps
Movie name : Отсутствие добра - Absence of the good [by Edich2]
Director : by Edich2
Writing application : VirtualDubModRus 1.5.10.2 (build 2542/release)
Video
ID : 0
Format : MPEG-4 Visual
Format profile : Advanced Simple@L5
Format settings, BVOP : 2
Format settings, QPel : No
Format settings, GMC : No warppoints
Format settings, Matrix : Default (MPEG)
Codec ID : XVID
Codec ID/Hint : XviD
Duration : 1h 34mn
Bit rate : 1 677 Kbps
Width : 720 pixels
Height : 400 pixels
Display aspect ratio : 16:9
Frame rate : 25.000 fps
Color space : YUV
Chroma subsampling : 4:2:0
Bit depth : 8 bits
Scan type : Progressive
Compression mode : Lossy
Bits/(Pixel*Frame) : 0.233
Stream size : 1.11 GiB (81%)
Writing library : XviD 1.2.1 (UTC 2008-12-04)
Audio
ID : 1
Format : AC-3
Format/Info : Audio Coding 3
Mode extension : CM (complete main)
Format settings, Endianness : Big
Codec ID : 2000
Duration : 1h 34mn
Bit rate mode : Constant
Bit rate : 384 Kbps
Channel(s) : 6 channels
Channel(s)_Original : 5 channels
Channel positions : Front: L C R, Side: L R
Sampling rate : 48.0 KHz
Bit depth : 16 bits
Compression mode : Lossy
Stream size : 259 MiB (19%)
Alignment : Split accross interleaves
Interleave, duration : 40 ms (1.00 video frame)
Interleave, preload duration : 500 ms

Скриншоты



To download the content you need:
1. Download and install torrent client [for Windows] or for mobile system
2. Click on [Download]
Attention.
If the test YOU are NOT a ROBOT - does not work, then You are using an outdated browser.
Install the current browser and click on [Download]

Do not work with Yandex browser. Uploading files to them is erroneous.
Security: torrent client is allowed by Kaspersky.

[en.asmlocator.ru].t4899.torrent 
Torrent: Registered [ 2015-12-02 05:40 ] · 92AF91CD4E2909C556EB214C33A3F0AA0A82834B

Download .torrent

Download

14 KB

Status: checked
Completed: 0 times
Size: 1.37 GB
terms.php
[Profile] [PM]
Display posts:    
Reply to topic

Current time is: 03-Apr 09:53

All times are UTC ± 0



You cannot post new topics in this forum
You cannot reply to topics in this forum
You cannot edit your posts in this forum
You cannot delete your posts in this forum
You cannot vote in polls in this forum
You cannot attach files in this forum
You can download files in this forum
Верим фактам, а не вранью Путина! Факт, что Правительство ведёт Россию к истреблению.
Так как численность населения падает, даже не смотря на приток эмигрантов!
Русская нация вымирает и вырождается, смешиваясь с эмигрантами!
Факт, что военных и граждан предприятий заставляют голосовать за партию Единая Россия и Путина
ПОД СТРАХОМ УВОЛЬНЕНИЯ!
Нам не нужно Правительство, блокирующее личную жизнь, интернет, нарушающее сохранность данных.
Все эти действия финансируются за счёт народа!