Море Дьявола / Корабль с Привидениями / The Haunted Sea (Дэн Голден / Dan Golden, Дэниел Патрик / Daniel Patrick) [1997, США, ужасы, боевик, DVDRip] DVO (Екатеринбург Арт) + Original Eng

Reply to topic
DL-List and Torrent activity
Size:  1.38 GB   |    Registered:  4 years 4 months   |    Completed:  0 times

Seeder not seen: 1 year 1 month

 
   
 
 
Author Message

star21 ®

Gender: Female

Longevity: 4 years 4 months

Posts: 551945

Location: Екатеринбург

Post 02-Dec-2015 05:43

[Quote]

Море Дьявола / Корабль с Привидениями / The Haunted Sea-Новый фантастический фильм в духе "Чужих" и "Секретных Материалов".
Когда моряки обнаруживают на борту загадочного судна затерянные сокровища ацтеков, им приходится иметь дело с древним мстительным богом.
- Год выпуска: 1997
Страна: США
Жанр: ужасы, боевик
Продолжительность: 01:14:06
Перевод: Профессиональный (двухголосый закадровый) - Екатеринбург Арт
Cубтитры: нет
Оригинальная аудиодорожка: английский
Режиссер: Дэн Голден / Dan Golden, Дэниел Патрик / Daniel Patrick
В ролях: Криста Аллен (2nd Mate Johnson), Дон Страуд (Chief Foster), Дуан Уайтакер (Andy Delgado), Джефф Филлипс (Charlie Lane), Джеймс Бролин (Captain Ramsey), Джоанна Пакула (1st Mate Bergren), Рональд Уильям Лоуренс (Marcus Talbot), Эб Лоттимер (Doug Ward), Лен Донато (Chief Engineer Anderson), Горацио Ле Дон (Randall Fisher)-Мировая премьера: 17 ноября 1997-Описание: Капитан небольшого судна Рамси, обнаруживает в открытом море дрейфующий корабль, невидимый для радара. Он отправляет на разведку вместе с командой моряков свою помощницу Мэри и Медину, молодую ученую, изучающую историю Центральной Америки. На борту загадочного судна Медина обнаруживает затерянные сокровища ацтеков — старинные золотые изделия, похищенные испанскими конкистадорами. Выясняется, что команда корабля погибла. Медина с ужасом понимает, что если моряки решат отбуксировать судно в ближайший порт и заявить о находке, им придется иметь дело с древним мстительным ацтекским богом, чей дух обитает в этих сокровищах. Но алчность членов команды делает свое дело, бог Кецалькоатль вселяется в тело одного из моряков и жаждет отомстить всем, кто хотел украсть его сокровище.-Исходник видео: из СГ.-Благодарности:
- собственная оцифровка перевода со своей лицензионной видеокассеты от видео-компании Екатеринбург Арт.
- синхронизация перевода.-Данный перевод на трекере появляется впервые.
На русский язык фильм подготовлен к показу студией "Ракурс" по заказу компании Екатеринбург Арт Home Video.
Текст читают Алексей Инжеватов и Наталья Гурзо.-Рейтинг

MPAA: R - Лицам до 17 лет обязательно присутствие взрослого.-Качество видео: DVDRip
Формат видео: AVI -> //SAMPLE//
Видео: XviD, 720x544 (4:3), 23.976 fps, 2266 kbps avg
Аудио:
1 - 48 khz, AC3 Dolby Digital, 2/0 (L,R) ch, ~192 kbps [Екатеринбург Арт] VHSRip
2 - 48 khz, AC3 Dolby Digital, 2/0 (L,R) ch, ~192 kbps [Английский]

MediaInfo

General
Complete name : E:\Торрент Файлы\Будущие Релизы на Трекере\1.35 - 1.46 и более гб\Море Дьявола DVDRip (Екатеринбург Арт + Оригинал).avi
Format : AVI
Format/Info : Audio Video Interleave
File size : 1.38 GiB
Duration : 1h 14mn
Overall bit rate : 2 664 Kbps
Writing application : VirtualDubMod 1.5.10.3 | www.virtualdub-fr.org || (build 2550/release)
Writing library : VirtualDubMod build 2550/release
Video
ID : 0
Format : MPEG-4 Visual
Format profile : Advanced Simple@L5
Format settings, BVOP : 1
Format settings, QPel : No
Format settings, GMC : No warppoints
Format settings, Matrix : Custom
Codec ID : XVID
Codec ID/Hint : XviD
Duration : 1h 14mn
Bit rate : 2 266 Kbps
Width : 720 pixels
Height : 544 pixels
Display aspect ratio : 4:3
Frame rate : 23.976 fps
Color space : YUV
Chroma subsampling : 4:2:0
Bit depth : 8 bits
Scan type : Progressive
Compression mode : Lossy
Bits/(Pixel*Frame) : 0.241
Stream size : 1.17 GiB (85%)
Writing library : XviD 1.2.0.dev47 (UTC 2006-11-01)
Audio #1
ID : 1
Format : AC-3
Format/Info : Audio Coding 3
Mode extension : CM (complete main)
Format settings, Endianness : Big
Codec ID : 2000
Duration : 1h 14mn
Bit rate mode : Constant
Bit rate : 192 Kbps
Channel(s) : 2 channels
Channel positions : Front: L R
Sampling rate : 48.0 KHz
Compression mode : Lossy
Stream size : 102 MiB (7%)
Alignment : Split accross interleaves
Interleave, duration : 42 ms (1.00 video frame)
Interleave, preload duratio : 500 ms
Language : English
Audio #2
ID : 2
Format : AC-3
Format/Info : Audio Coding 3
Mode extension : CM (complete main)
Format settings, Endianness : Big
Codec ID : 2000
Duration : 1h 14mn
Bit rate mode : Constant
Bit rate : 192 Kbps
Channel(s) : 2 channels
Channel positions : Front: L R
Sampling rate : 48.0 KHz
Compression mode : Lossy
Stream size : 102 MiB (7%)
Alignment : Split accross interleaves
Interleave, duration : 42 ms (1.00 video frame)
Interleave, preload duratio : 500 ms

Скриншот c названием фильма

Скриншоты

To download the content you need:
1. Download and install torrent client [for Windows] or for mobile system
2. Click on [Download]
Attention.
If the test YOU are NOT a ROBOT - does not work, then You are using an outdated browser.
Install the current browser and click on [Download]

Do not work with Yandex browser. Uploading files to them is erroneous.
Security: torrent client is allowed by Kaspersky.

[en.asmlocator.ru].t4896.torrent 
Torrent: Registered [ 2015-12-02 05:40 ] · 8C49EBCE8FA70A902C92E6221A0C105753BCE779

Download .torrent

Download

14 KB

Status: checked
Completed: 0 times
Size: 1.38 GB
terms.php
[Profile] [PM]
Display posts:    
Reply to topic

Current time is: 05-Apr 04:34

All times are UTC ± 0



You cannot post new topics in this forum
You cannot reply to topics in this forum
You cannot edit your posts in this forum
You cannot delete your posts in this forum
You cannot vote in polls in this forum
You cannot attach files in this forum
You can download files in this forum
Верим фактам, а не вранью Путина! Факт, что Правительство ведёт Россию к истреблению.
Так как численность населения падает, даже не смотря на приток эмигрантов!
Русская нация вымирает и вырождается, смешиваясь с эмигрантами!
Факт, что военных и граждан предприятий заставляют голосовать за партию Единая Россия и Путина
ПОД СТРАХОМ УВОЛЬНЕНИЯ!
Нам не нужно Правительство, блокирующее личную жизнь, интернет, нарушающее сохранность данных.
Все эти действия финансируются за счёт народа!