Море Дьявола / Корабль с Привидениями / The Haunted Sea (Дэн Голден / Dan Golden, Дэниел Патрик / Daniel Patrick) [1997, США, ужасы, боевик, SATRip] [Полная Версия] DVO (Екатеринбург Арт)

Reply to topic
DL-List and Torrent activity
Size:  1.13 GB   |    Registered:  4 years 4 months   |    Completed:  0 times

Seeder not seen: Never

 
   
 
 
Author Message

star21 ®

Gender: Female

Longevity: 4 years 4 months

Posts: 551945

Location: Екатеринбург

Post 02-Dec-2015 05:43

[Quote]

Море Дьявола / Корабль с Привидениями / The Haunted Sea / Полная Версия-Новый фантастический фильм в духе "Чужих" и "Секретных Материалов".
Хранит затерянные сокровища Ацтеков и тайну древнего мстительного бога.
- Год выпуска: 1997
Страна: США
Жанр: ужасы, боевик
Продолжительность: 01:15:28
Перевод: Профессиональный (двухголосый закадровый) - Екатеринбург Арт
Cубтитры: нет
Оригинальная аудиодорожка: английский
Режиссер: Дэн Голден / Dan Golden, Дэниел Патрик / Daniel Patrick
В ролях: Криста Аллен (2nd Mate Johnson), Дон Страуд (Chief Foster), Дуан Уайтакер (Andy Delgado), Джефф Филлипс (Charlie Lane), Джеймс Бролин (Captain Ramsey), Джоанна Пакула (1st Mate Bergren), Рональд Уильям Лоуренс (Marcus Talbot), Эб Лоттимер (Doug Ward), Лен Донато (Chief Engineer Anderson), Горацио Ле Дон (Randall Fisher)-Мировая премьера: 17 ноября 1997-Описание: Когда команда моряков обнаруживает на борту загадочного судна, невидимого для радара, затерянные сокровища древних Ацтеков, они не подозревают, что им придётся иметь дело с древним и мстительным Ацтекским богом, чей дух обитает в этих сокровищах. Теперь он вселился в тело одного из моряков и жаждет отомстить всем, кто хотел украсть его сокровища.-Благодарности:
- .
- собственная оцифровка перевода со своей лицензионной видеокассеты от видео-компании Екатеринбург Арт.
- синхронизация перевода.-В этой раздаче самая полная версия фильма. Ранее мною выложенный - немного порезанная версия (было вырезано примерно 5-6 минут).
В ниже указанном сэмпле один из эпизодов, который как раз был вырезан в DVDRipе
.-На русский язык фильм подготовлен к показу студией "Ракурс" по заказу компании Екатеринбург Арт Home Video.
Текст читают Алексей Инжеватов и Наталья Гурзо.-Рейтинг

MPAA: R - Лицам до 17 лет обязательно присутствие взрослого.-Качество видео: SATRip
Формат видео: AVI -> //СЭМПЛ//
Видео: XviD, 704x512 (1,375), 25.000 fps, 1936 kbps avg
Аудио:
1 - 48 khz, AC3 Dolby Digital, 2/0 (L,R) ch, ~192 kbps [Екатеринбург Арт] VHSRip

MediaInfo

General
Complete name : E:\Торрент Файлы\Будущие Релизы на Трекере\1.35 - 1.46 и более гб\Море Дьявола SATRip (Екатеринбург Арт).avi
Format : AVI
Format/Info : Audio Video Interleave
File size : 1.13 GiB
Duration : 1h 15mn
Overall bit rate : 2 138 Kbps
Video
ID : 0
Format : MPEG-4 Visual
Format profile : Advanced Simple@L5
Format settings, BVOP : 2
Format settings, QPel : No
Format settings, GMC : No warppoints
Format settings, Matrix : Default (H.263)
Codec ID : XVID
Codec ID/Hint : XviD
Duration : 1h 15mn
Bit rate : 1 936 Kbps
Width : 704 pixels
Height : 512 pixels
Display aspect ratio : 1.375
Frame rate : 25.000 fps
Color space : YUV
Chroma subsampling : 4:2:0
Bit depth : 8 bits
Scan type : Progressive
Compression mode : Lossy
Bits/(Pixel*Frame) : 0.215
Stream size : 1.02 GiB (91%)
Writing library : XviD 1.2.1 (UTC 2008-12-04)
Audio
ID : 1
Format : AC-3
Format/Info : Audio Coding 3
Mode extension : CM (complete main)
Format settings, Endianness : Big
Codec ID : 2000
Duration : 1h 15mn
Bit rate mode : Constant
Bit rate : 192 Kbps
Channel(s) : 2 channels
Channel positions : Front: L R
Sampling rate : 48.0 KHz
Compression mode : Lossy
Stream size : 104 MiB (9%)
Alignment : Split accross interleaves
Interleave, duration : 40 ms (1.00 video frame)
Interleave, preload duratio : 500 ms

Скриншот c названием фильма

Скриншоты

To download the content you need:
1. Download and install torrent client [for Windows] or for mobile system
2. Click on [Download]
Attention.
If the test YOU are NOT a ROBOT - does not work, then You are using an outdated browser.
Install the current browser and click on [Download]

Do not work with Yandex browser. Uploading files to them is erroneous.
Security: torrent client is allowed by Kaspersky.

[en.asmlocator.ru].t4895.torrent 
Torrent: Registered [ 2015-12-02 05:40 ] · 1665EB0B32E46F9610913F8C87D34486F2DEA7E3

Download .torrent

Download

12 KB

Status: checked
Completed: 0 times
Size: 1.13 GB
terms.php
[Profile] [PM]
Display posts:    
Reply to topic

Current time is: 03-Apr 09:43

All times are UTC ± 0



You cannot post new topics in this forum
You cannot reply to topics in this forum
You cannot edit your posts in this forum
You cannot delete your posts in this forum
You cannot vote in polls in this forum
You cannot attach files in this forum
You can download files in this forum
Верим фактам, а не вранью Путина! Факт, что Правительство ведёт Россию к истреблению.
Так как численность населения падает, даже не смотря на приток эмигрантов!
Русская нация вымирает и вырождается, смешиваясь с эмигрантами!
Факт, что военных и граждан предприятий заставляют голосовать за партию Единая Россия и Путина
ПОД СТРАХОМ УВОЛЬНЕНИЯ!
Нам не нужно Правительство, блокирующее личную жизнь, интернет, нарушающее сохранность данных.
Все эти действия финансируются за счёт народа!