Контракт Киллера / The Contract (К.С. Баскомб / K.C. Bascombe) [1999, Канада, боевик, криминал, DVDRip] DVO (Екатеринбург Арт)

Reply to topic
DL-List and Torrent activity
Size:  1.41 GB   |    Registered:  4 years 4 months   |    Completed:  0 times

Seeder not seen: 1 year 1 month

 
   
 
 
Author Message

star21 ®

Gender: Female

Longevity: 4 years 5 months

Posts: 551945

Location: Екатеринбург

Post 02-Dec-2015 05:43

[Quote]

Контракт Киллера / The Contract-Они убили её учителя, но совершили ошибку. Не смогли убить её.
А она профессионал как Никита. И по настоящему трудная мишень в этой смертельной игре мира спецслужб.
Теперь она жаждет расплаты.
- Год выпуска: 1999
Страна: Канада
Жанр: боевик, криминал
Продолжительность: 01:30:21
Перевод: Профессиональный (двухголосый закадровый) - Екатеринбург Арт
Cубтитры: нет
Режиссер: К.С. Баскомб / K.C. Bascombe
В ролях: Лорен Имбо (Luc), Джоанна Блэк (Hannah), Джон Джордан (Big Boss), Блэр Йоханнес (Big Boss Suit #1), Кристофер Шарп (Big Boss Suit #3), Билли Ди Уильямс (Senator Harmon), Мэттью Олвер (James), Джулиан Тассиелли (Jimmy), Клодин Де Йонг (Alida), Джейсон Оулд (Mr. Wellington)-Мировая премьера: 29 мая 1999-Описание: Они убили ее учителя. Но допустили ошибку… Не смогли убить ее. Ханна — профессионал, как «Никита». И по-настоящему «трудная мишень» в смертельной игре спецслужб. Когда убивают ее наставника Люка, боевого товарища отца Ханны, погибшего во Вьетнаме, она понимает, что станет следующей жертвой. Сенатор Хармон, под контролем которого работала команда Люка — секретная группа «черных беретов» — спецназовцев, выдвинул свою кандидатуру в президенты и решил уничтожить все свои связи, которые могут стать политическим компроматом. Но сенатор не учел одного: Ханна «на отлично» усвоила уроки своего учителя. Теперь она жаждет расплаты и понимает, что должна опередить наемных убийц Хармона, пока они не добрались до нее первыми…-Исходник видео: найден в сети.-Благодарности:
- собственная оцифровка перевода со своей лицензионной видеокассеты от видео-компании Екатеринбург Арт.
- синхронизация перевода.-Данный фильм вместе с русским переводом на трекере появляется впервые.
На русский язык фильм озвучен студией "Стар Трек" по заказу компании Екатеринбург Арт.
Пока не знаю, кто читает текст.-Рейтинг

MPAA: R - Лицам до 17 лет обязательно присутствие взрослого.-Качество видео: DVDRip
Формат видео: AVI -> //СЭМПЛ//
Видео: XviD, 704x528 (4:3), 25.000 fps, 2029 kbps avg
Аудио:
1 - 48 khz, AC3 Dolby Digital, 2/0 (L,R) ch, ~192 kbps [Екатеринбург Арт] VHSRip

MediaInfo

General
Complete name : E:\Торрент Файлы\Будущие Релизы на Трекере\1.35 - 1.46 и более гб\Контракт Киллера (Екатеринбург Арт).avi
Format : AVI
Format/Info : Audio Video Interleave
File size : 1.41 GiB
Duration : 1h 30mn
Overall bit rate : 2 231 Kbps
Writing application : VirtualDubMod 1.5.10.3 | www.virtualdub-fr.org || (build 2550/release)
Writing library : VirtualDubMod build 2550/release
Video
ID : 0
Format : MPEG-4 Visual
Format profile : Advanced Simple@L5
Format settings, BVOP : 1
Format settings, QPel : No
Format settings, GMC : No warppoints
Format settings, Matrix : Custom
Codec ID : XVID
Codec ID/Hint : XviD
Duration : 1h 30mn
Bit rate : 2 029 Kbps
Width : 704 pixels
Height : 528 pixels
Display aspect ratio : 4:3
Frame rate : 25.000 fps
Color space : YUV
Chroma subsampling : 4:2:0
Bit depth : 8 bits
Scan type : Progressive
Compression mode : Lossy
Bits/(Pixel*Frame) : 0.218
Stream size : 1.28 GiB (91%)
Writing library : XviD 1.2.1 (UTC 2008-12-04)
Audio
ID : 1
Format : AC-3
Format/Info : Audio Coding 3
Mode extension : CM (complete main)
Format settings, Endianness : Big
Codec ID : 2000
Duration : 1h 30mn
Bit rate mode : Constant
Bit rate : 192 Kbps
Channel(s) : 2 channels
Channel positions : Front: L R
Sampling rate : 48.0 KHz
Compression mode : Lossy
Stream size : 124 MiB (9%)
Alignment : Split accross interleaves
Interleave, duration : 40 ms (1.00 video frame)
Interleave, preload duratio : 500 ms

Скриншот c названием фильма

Скриншоты

To download the content you need:
1. Download and install torrent client [for Windows] or for mobile system
2. Click on [Download]
Attention.
If the test YOU are NOT a ROBOT - does not work, then You are using an outdated browser.
Install the current browser and click on [Download]

Do not work with Yandex browser. Uploading files to them is erroneous.
Security: torrent client is allowed by Kaspersky.

[en.asmlocator.ru].t4894.torrent 
Torrent: Registered [ 2015-12-02 05:40 ] · 499BEB5383CA8C0A536DF641A52221EF70D2E4CC

Download .torrent

Download

15 KB

Status: checked
Completed: 0 times
Size: 1.41 GB
terms.php
[Profile] [PM]
Display posts:    
Reply to topic

Current time is: 08-Apr 01:36

All times are UTC ± 0



You cannot post new topics in this forum
You cannot reply to topics in this forum
You cannot edit your posts in this forum
You cannot delete your posts in this forum
You cannot vote in polls in this forum
You cannot attach files in this forum
You can download files in this forum
Верим фактам, а не вранью Путина! Факт, что Правительство ведёт Россию к истреблению.
Так как численность населения падает, даже не смотря на приток эмигрантов!
Русская нация вымирает и вырождается, смешиваясь с эмигрантами!
Факт, что военных и граждан предприятий заставляют голосовать за партию Единая Россия и Путина
ПОД СТРАХОМ УВОЛЬНЕНИЯ!
Нам не нужно Правительство, блокирующее личную жизнь, интернет, нарушающее сохранность данных.
Все эти действия финансируются за счёт народа!