Искусительница / Temptress / Gottliche Versuchung (Лоуренс Ланофф / Lawrence Lanoff) [1995, США, ужасы, триллер, эротика, DVDRip] DVO (Екатеринбург Арт) + AVO (Володарский)

Reply to topic
DL-List and Torrent activity
Size:  1.58 GB   |    Registered:  4 years 4 months   |    Completed:  1 time

Seeder not seen: 5 months 14 days

 
   
 
 
Author Message

star21 ®

Gender: Female

Longevity: 4 years 4 months

Posts: 551945

Location: Екатеринбург

Post 02-Dec-2015 05:43

[Quote]

Искусительница / Temptress / Gottliche Versuchung-Живое воплощение индийской богини любви.
Производство киностудии знаменитого журнала "PLAYBOY".
Лучшая гарантия качества, которому Вы можете доверять.
- Год выпуска: 1995
Страна: США
Жанр: ужасы, триллер, эротика
Продолжительность: 01:32:49
Перевод: Профессиональный (двухголосый закадровый) - Екатеринбург Арт
Перевод 2: Авторский (одноголосый закадровый) - Леонид Володарский
Cубтитры: нет
Режиссер: Лоуренс Ланофф / Lawrence Lanoff
В ролях: Ким Делани (Karin Swann), Крис Сарандон (Matt Christianson), Корбин Бернсен (Nick), Ди Уоллес-Стоун (Allison Mackie), Бен Кросс (Dr. Samudaya), Джессика Уолтер (Dr. Phyllis Evergreen), Катрина МакНил (Naresh), Грегори Уоллес (Henry Delute), Дэвид Брукс (Larry Gilbert), Райан МакДональд (Gordon Henson)-Мировая премьера: 14 ноября 1995-Описание: Вернувшись из командировки в Индию, Карин привезла много редких и красивых вещей, в том числе древнюю статуэтку женщины, излучающую скрытую угрозу и мощный сексуальный потенциал. Любовник Карин, Мэтью замечает, что она начинает сильно меняться внешне. Ее некогда светлые волосы темнеют, лицо и фигура становится все более обольстительными, а поведение все более агрессивным. Спровоцированная Карин попытка ее знакомого вступить с ней в интимные отношения заканчивается его гибелью. Прямо в офисе Мэттью она соблазняет одного из его коллег, и он также погибает. Карин постепенно превращается в живое воплощение древней индийской богини Кали. Только индийский профессор Самудайя точно знает природу происходящего и открывает Мэттью единственную возможность избавления Карин от овладевшего ей духа.-Исходник видео: из СГ. Аудиодорожки найдены в сети.-Благодарности:
- синхронизация переводов.-Данный фильм вместе с русскими переводами на трекере появляются впервые.
На русский язык фильм подготовлен к показу студией "Ракурс" по заказу компании Екатеринбург Арт Home Video.
Текст читают Александр Рахленко и Нина Тобилевич.-Рейтинг

MPAA: R - Лицам до 17 лет обязательно присутствие взрослого.-Качество видео: DVDRip
Формат видео: AVI -> //СЭМПЛ//
Видео: XviD, 704x528 (4:3), 25.000 fps, 2040 kbps avg
Аудио:
1 - 48 khz, AC3 Dolby Digital, 2/0 (L,R) ch, ~192 kbps [Екатеринбург Арт] VHSRip
2 - 48 khz, AC3 Dolby Digital, 2/0 (L,R) ch, ~192 kbps [Володарский] VHSRip отдельным файлом

MediaInfo

General
Complete name : E:\Торрент Файлы\Будущие Релизы на Трекере\1.35 - 1.46 и более гб\Искусительница (Екатеринбург Арт + Володарский)\Искусительница (Екатеринбург Арт).avi
Format : AVI
Format/Info : Audio Video Interleave
File size : 1.45 GiB
Duration : 1h 32mn
Overall bit rate : 2 242 Kbps
Writing application : VirtualDubMod 1.5.10.3 | www.virtualdub-fr.org || (build 2550/release)
Writing library : VirtualDubMod build 2550/release
Video
ID : 0
Format : MPEG-4 Visual
Format profile : Advanced Simple@L5
Format settings, BVOP : 1
Format settings, QPel : No
Format settings, GMC : No warppoints
Format settings, Matrix : Custom
Codec ID : XVID
Codec ID/Hint : XviD
Duration : 1h 32mn
Bit rate : 2 040 Kbps
Width : 704 pixels
Height : 528 pixels
Display aspect ratio : 4:3
Frame rate : 25.000 fps
Color space : YUV
Chroma subsampling : 4:2:0
Bit depth : 8 bits
Scan type : Progressive
Compression mode : Lossy
Bits/(Pixel*Frame) : 0.220
Stream size : 1.32 GiB (91%)
Writing library : XviD 1.2.1 (UTC 2008-12-04)
Audio
ID : 1
Format : AC-3
Format/Info : Audio Coding 3
Mode extension : CM (complete main)
Format settings, Endianness : Big
Codec ID : 2000
Duration : 1h 32mn
Bit rate mode : Constant
Bit rate : 192 Kbps
Channel(s) : 2 channels
Channel positions : Front: L R
Sampling rate : 48.0 KHz
Compression mode : Lossy
Stream size : 127 MiB (9%)
Alignment : Split accross interleaves
Interleave, duration : 40 ms (1.00 video frame)
Interleave, preload duratio : 500 ms

Скриншот c названием фильма

Скриншоты

To download the content you need:
1. Download and install torrent client [for Windows] or for mobile system
2. Click on [Download]
Attention.
If the test YOU are NOT a ROBOT - does not work, then You are using an outdated browser.
Install the current browser and click on [Download]

Do not work with Yandex browser. Uploading files to them is erroneous.
Security: torrent client is allowed by Kaspersky.

[en.asmlocator.ru].t4893.torrent 
Torrent: Registered [ 2015-12-02 05:40 ] · 58D603D28F292AA0CF480BC7578017CAD5753E6E

Download .torrent

Download

17 KB

Status: checked
Completed: 1 times
Size: 1.58 GB
terms.php
[Profile] [PM]
Display posts:    
Reply to topic

Current time is: 03-Apr 04:14

All times are UTC ± 0



You cannot post new topics in this forum
You cannot reply to topics in this forum
You cannot edit your posts in this forum
You cannot delete your posts in this forum
You cannot vote in polls in this forum
You cannot attach files in this forum
You can download files in this forum
Верим фактам, а не вранью Путина! Факт, что Правительство ведёт Россию к истреблению.
Так как численность населения падает, даже не смотря на приток эмигрантов!
Русская нация вымирает и вырождается, смешиваясь с эмигрантами!
Факт, что военных и граждан предприятий заставляют голосовать за партию Единая Россия и Путина
ПОД СТРАХОМ УВОЛЬНЕНИЯ!
Нам не нужно Правительство, блокирующее личную жизнь, интернет, нарушающее сохранность данных.
Все эти действия финансируются за счёт народа!