Боевые роботы / Войны роботов / Robo Warriors (Иэн Бэрри / Ian Barry) [1996, США, Фантастика, Боевик, Приключения, VHSRip] MVO (РТР)

Reply to topic
DL-List and Torrent activity
Size:  1.67 GB   |    Registered:  4 years 4 months   |    Completed:  0 times

Seeder not seen: 3 years 6 months

 
   
 
 
Author Message

star21 ®

Gender: Female

Longevity: 4 years 4 months

Posts: 551945

Location: Екатеринбург

Post 02-Dec-2015 05:43

[Quote]

Боевые роботы / Войны роботов / Robo Warriors
Страна: США
Жанр: Фантастика, Боевик, Приключения
Год выпуска: 1996
Продолжительность: 01:25:32
Перевод: Профессиональный (многоголосый закадровый) РТР
Cубтитры: нет
Оригинальная аудиодорожка: нет
Режиссер: Иэн Бэрри / Ian Barry
В ролях: Джеймс Римар / James Remar, Кайл Ховард / Kyle Howard, Джеймс Толкан / James Tolkan, Джеймс Лью / James Lew, Бернард Кейтс / Bernard Kates, Джеймс Уит / James With
Описание: В результате опустошительной межпланетной войны практически разрушена Земля и соседние планеты. Могущественные победители, воины — Терадаксы правят на Земле. Только Гибсон — величайший воин-робот способен противостоять инструменту смерти роботов, внушающему ужас Голиафу.
Доп. информация: Рип сделан с видеокассеты с записью фильма с телетрансляции канала РТР, перевод многоголосый. Во всем интернете такого перевода нет и я давно хотел сделать версию именно с этим переводом. Рип сделан как смог, в формате mpg. Считаю данную раздачу редкой и прошу модераторов одобрить. Так же разрешаю использовать звуковую дорожку для DVDRip, если кто то захочет сделать такой релиз.
В данной версии отсутствует около 10 секунд в конце и титры. Сэмпл сделать не получилось, VirtualDub с mpg не хочет толково работать.
Если посчитаете это релиз ненужным, просто удалите.
Сэмпл: Кинопоиск - http://www.kinopoisk.ru/film/6844
Качество видео: VHSRip
Формат видео: MPG
Видео: MPEG-PS, 720x576, 1,25:1, 25 fps, 2560 Kbps
Аудио: MPEG Audio, 44.1 KHz, 192 Kbps, 2 channels, русский многоголосый РТР

MediaInfo

General
Complete name : E:\Downloads\Torrents\Robo_Warriors_1996_TVVHSRip_MVO_RTR.mpg
Format : MPEG-PS
File size : 1.67 GiB
Duration : 1h 25mn
Overall bit rate : 2 797 Kbps
Video
ID : 224 (0xE0)
Format : MPEG Video
Format version : Version 2
Format profile : Main@Main
Format settings, BVOP : Yes
Format settings, Matrix : Default
Format settings, GOP : M=3, N=15
Duration : 1h 25mn
Bit rate : 2 560 Kbps
Width : 720 pixels
Height : 576 pixels
Display aspect ratio : 4:3
Frame rate : 25.000 fps
Standard : PAL
Color space : YUV
Chroma subsampling : 4:2:0
Bit depth : 8 bits
Scan type : Progressive
Scan order : Top Field First
Compression mode : Lossy
Bits/(Pixel*Frame) : 0.247
Time code of first frame : 00:00:00:17
Time code source : Group of pictures header
Stream size : 1.52 GiB (91%)
Color primaries : BT.601 PAL
Transfer characteristics : BT.470 System B, BT.470 System G
Matrix coefficients : BT.601
Audio
ID : 192 (0xC0)
Format : MPEG Audio
Format version : Version 1
Format profile : Layer 2
Duration : 1h 25mn
Bit rate mode : Constant
Bit rate : 192 Kbps
Channel count : 2 channels
Sampling rate : 44.1 KHz
Compression mode : Lossy
Delay relative to video : -179ms
Stream size : 117 MiB (7%)

Скриншот c названием фильма

Скриншоты

To download the content you need:
1. Download and install torrent client [for Windows] or for mobile system
2. Click on [Download]
Attention.
If the test YOU are NOT a ROBOT - does not work, then You are using an outdated browser.
Install the current browser and click on [Download]

Do not work with Yandex browser. Uploading files to them is erroneous.
Security: torrent client is allowed by Kaspersky.

[en.asmlocator.ru].t4892.torrent 
Torrent: Registered [ 2015-12-02 05:40 ] · 5307B8EEEB3064BF750EFA9DF7373AB419A94436

Download .torrent

Download

17 KB

Status: checked
Completed: 0 times
Size: 1.67 GB
terms.php
[Profile] [PM]
Display posts:    
Reply to topic

Current time is: 04-Apr 15:29

All times are UTC ± 0



You cannot post new topics in this forum
You cannot reply to topics in this forum
You cannot edit your posts in this forum
You cannot delete your posts in this forum
You cannot vote in polls in this forum
You cannot attach files in this forum
You can download files in this forum
Верим фактам, а не вранью Путина! Факт, что Правительство ведёт Россию к истреблению.
Так как численность населения падает, даже не смотря на приток эмигрантов!
Русская нация вымирает и вырождается, смешиваясь с эмигрантами!
Факт, что военных и граждан предприятий заставляют голосовать за партию Единая Россия и Путина
ПОД СТРАХОМ УВОЛЬНЕНИЯ!
Нам не нужно Правительство, блокирующее личную жизнь, интернет, нарушающее сохранность данных.
Все эти действия финансируются за счёт народа!