Бандитское правосудие / Dead and Alive: The Race for Gus Farace / In the Line of Duty: Mob Justice (Питер Маркл / Peter Markle) [1991, США, боевик, детектив, DVDRip] AVO (Визгунов) + AVO (Кашкин-Первомайский)

Reply to topic
DL-List and Torrent activity
Size:  1.48 GB   |    Registered:  4 years 4 months   |    Completed:  0 times

Seeder not seen: 2 years 4 months

 
   
 
 
Author Message

star21 ®

Gender: Female

Longevity: 4 years 4 months

Posts: 551945

Location: Екатеринбург

Post 02-Dec-2015 05:43

[Quote]

Бандитское правосудие / Dead and Alive: The Race for Gus Farace / In the Line of Duty: Mob Justice
Страна: США
Жанр: боевик, детектив
Год выпуска: 1991
Продолжительность: 01:24:20
Перевод: Авторский (одноголосый закадровый) Визгунов
Перевод 2: Авторский (одноголосый закадровый) Кашкин-Первомайский
Cубтитры: нет
Режиссер: Питер Маркл / Peter Markle
В ролях: Сэмюэл Л. Джексон, Николас Туртурро, Тони Данза, Тед Левайн, Дэн Лориа, Леонардо Чимино, Джо Лизи
Описание: Один из лучших агентов ФБР, расследующий деятельность наркодельца Скасси. Убит. «Мокрое дело» сделано Гасом Ферэсом, доверенным лицом хозяина. Теперь за Гасом идет охота. ФБР мечтает достать его живым. Мафия хочет его мертвым, ведь Гас хочет слишком много знает.
Доп. информация: Благодарность:
Fikaloid - за дорожки AVO с VHS
xelon2006 - за синхрон дорожек

Ну и мне как организатору
Релиз
Сэмпл: https://yadi.sk/i/FDQdW4geineiq
Качество видео: DVDRip
Формат видео: AVI
Видео: 640x480 (1.33:1), 23.976 fps, XviD build 50 ~2118 kbps avg, 0.29 bit/pixel
Аудио: 48 kHz, AC3 Dolby Digital, 2/0 (L,R) ch, ~192 kbps Визгунов
Аудио 2: 48 kHz, AC3 Dolby Digital, 2/0 (L,R) ch, ~192 kbps Кашкин

MediaInfo

Бандитское правосудие - In the Line of Duty- Mob Justice [by Edich2].avi
Format : AVI
Format/Info : Audio Video Interleave
File size : 1.48 GiB
Duration : 1h 24mn
Overall bit rate : 2 517 Kbps
Movie name : Бандитское правосудие - In the Line of Duty- Mob Justice [by Edich2]
Director : by Edich2
Writing application : VirtualDubMod 1.5.10.2 (build 2540/release)
Comment : RuTracker.org
Video
ID : 0
Format : MPEG-4 Visual
Format profile : Advanced Simple@L5
Format settings, BVOP : 1
Format settings, QPel : No
Format settings, GMC : No warppoints
Format settings, Matrix : Default (MPEG)
Codec ID : XVID
Codec ID/Hint : XviD
Duration : 1h 24mn
Bit rate : 2 119 Kbps
Width : 640 pixels
Height : 480 pixels
Display aspect ratio : 4:3
Frame rate : 23.976 fps
Color space : YUV
Chroma subsampling : 4:2:0
Bit depth : 8 bits
Scan type : Progressive
Compression mode : Lossy
Bits/(Pixel*Frame) : 0.288
Stream size : 1.25 GiB (84%)
Writing library : XviD 1.2.1 (UTC 2008-12-04)
Audio #1
ID : 1
Format : AC-3
Format/Info : Audio Coding 3
Mode extension : CM (complete main)
Format settings, Endianness : Big
Codec ID : 2000
Duration : 1h 24mn
Bit rate mode : Constant
Bit rate : 192 Kbps
Channel(s) : 2 channels
Channel positions : Front: L R
Sampling rate : 48.0 KHz
Bit depth : 16 bits
Compression mode : Lossy
Stream size : 116 MiB (8%)
Alignment : Split accross interleaves
Interleave, duration : 42 ms (1.00 video frame)
Interleave, preload duration : 500 ms
Audio #2
ID : 2
Format : AC-3
Format/Info : Audio Coding 3
Mode extension : CM (complete main)
Format settings, Endianness : Big
Codec ID : 2000
Duration : 1h 24mn
Bit rate mode : Constant
Bit rate : 192 Kbps
Channel(s) : 2 channels
Channel positions : Front: L R
Sampling rate : 48.0 KHz
Bit depth : 16 bits
Compression mode : Lossy
Stream size : 116 MiB (8%)
Alignment : Split accross interleaves
Interleave, duration : 42 ms (1.00 video frame)
Interleave, preload duration : 500 ms

Скриншоты



To download the content you need:
1. Download and install torrent client [for Windows] or for mobile system
2. Click on [Download]
Attention.
If the test YOU are NOT a ROBOT - does not work, then You are using an outdated browser.
Install the current browser and click on [Download]

Do not work with Yandex browser. Uploading files to them is erroneous.
Security: torrent client is allowed by Kaspersky.

[en.asmlocator.ru].t4890.torrent 
Torrent: Registered [ 2015-12-02 05:40 ] · 170452FD2A01EEF086771DB7F87050324C9EF9E9

Download .torrent

Download

15 KB

Status: checked
Completed: 0 times
Size: 1.48 GB
terms.php
[Profile] [PM]
Display posts:    
Reply to topic

Current time is: 03-Apr 10:09

All times are UTC ± 0



You cannot post new topics in this forum
You cannot reply to topics in this forum
You cannot edit your posts in this forum
You cannot delete your posts in this forum
You cannot vote in polls in this forum
You cannot attach files in this forum
You can download files in this forum
Верим фактам, а не вранью Путина! Факт, что Правительство ведёт Россию к истреблению.
Так как численность населения падает, даже не смотря на приток эмигрантов!
Русская нация вымирает и вырождается, смешиваясь с эмигрантами!
Факт, что военных и граждан предприятий заставляют голосовать за партию Единая Россия и Путина
ПОД СТРАХОМ УВОЛЬНЕНИЯ!
Нам не нужно Правительство, блокирующее личную жизнь, интернет, нарушающее сохранность данных.
Все эти действия финансируются за счёт народа!