Князь Дракула / Тёмный Господарь: Подлинная История Дракулы / Dark Prince: The True Story of Dracula (Джо Чаппелль / Joe Chappelle) [2000, США, ужасы, триллер, биография, DVDRip] DVO (Екатеринбург Арт) + Original Eng

Reply to topic
DL-List and Torrent activity
Size:  1.36 GB   |    Registered:  4 years 3 months   |    Completed:  1 time

Seeder not seen: 37 minutes

 
   
 
 
Author Message

star21 ®

Gender: Female

Longevity: 4 years 4 months

Posts: 551945

Location: Екатеринбург

Post 02-Dec-2015 05:43

[Quote]

Князь Дракула / Тёмный Господарь: Подлинная История Дракулы / Dark Prince: The True Story of Dracula-"ХРАБРОЕ СЕРДЦЕ" Восточной Европы.
Подлинная история румынского господаря Влада Цепеша, история жестоких битв, неистовой мести и кровавой любви.
- Год выпуска: 2000
Страна: США
Жанр: ужасы, триллер, биография
Продолжительность: 01:27:42
Перевод: Профессиональный (двухголосый закадровый) - Екатеринбург Арт
Cубтитры: нет
Оригинальная аудиодорожка: английский
Режиссер: Джо Чаппелль / Joe Chappelle
В ролях: Рудольф Мартин (Vlad Dracula the Impaler), Джейн Марч (Lidia), Кристофер Брэнд (Bruno), Питер Уэллер (Father Stefan), Роджер Долтри (King Janos), Майкл Саттон (Radu), Рэзван Василеску (Aron), Раду Амзулеску (Inquisitor), Майя Моргенштейн (Woman at Fountain), Клаудиу Блеунц (Sultan Mohamed)-Мировая премьера: 31 октября 2000-Описание: В 1431 году в Трансильвании появился на свет легендарный Влад Цепеш, благородный потомок древнего княжеского рода, прославившийся не только своей боевой доблестью, но и безумной жестокостью, ужасавшей даже его соратников. Освобождая Румынию от гнета чужеземцев и беспощадно мстя им, князь Дракула обезглавливал своих недругов, сажал их на кол и устраивал трапезы, обмакивая хлеб в их дымящуюся кровь. Народ, ставший свидетелем этих событий, нарек своего гордого властителя «Колосажателем», описав в преданиях и хрониках правду о кошмарных деяниях могущественного румынского господаря, известного нам, как первый в истории вампир — Дракула.-Благодарности:
- .
- собственная оцифровка перевода со своей лицензионной видеокассеты от видео-компании Екатеринбург Арт.
- синхронизация перевода.-Данный перевод на трекере появляется впервые.
На русский язык фильм озвучен студией по заказу компании Екатеринбург Арт.
Мужские роли озвучивает Владимир Вихров.-Рейтинг

MPAA: R - Лицам до 17 лет обязательно присутствие взрослого.-Качество видео: DVDRip
Формат видео: AVI -> //SAMPLE//
Видео: XviD, 592x432 (1.370), 25.000 fps, 1372 kbps avg
Аудио:
1 - 48 khz, AC3 Dolby Digital, 2/0 (L,R) ch, ~192 kbps [Екатеринбург Арт] VHSRip
2 - 48 khz, AC3 Dolby Digital, 6/0 (L,C,R,L,R,LFE) ch, ~640 kbps [Английский]

MediaInfo

General
Complete name : E:\Торрент Файлы\Будущие Релизы на Трекере\1.35 - 1.46 и более гб\Князь Дракула (Екатеринбург Арт + Оригинал).avi
Format : AVI
Format/Info : Audio Video Interleave
File size : 1.36 GiB
Duration : 1h 27mn
Overall bit rate : 2 218 Kbps
Video
ID : 0
Format : MPEG-4 Visual
Format profile : Advanced Simple@L5
Format settings, BVOP : 1
Format settings, QPel : No
Format settings, GMC : No warppoints
Format settings, Matrix : Default (MPEG)
Codec ID : XVID
Codec ID/Hint : XviD
Duration : 1h 27mn
Bit rate : 1 372 Kbps
Width : 592 pixels
Height : 432 pixels
Display aspect ratio : 1.370
Frame rate : 25.000 fps
Color space : YUV
Chroma subsampling : 4:2:0
Bit depth : 8 bits
Scan type : Progressive
Compression mode : Lossy
Bits/(Pixel*Frame) : 0.215
Stream size : 861 MiB (62%)
Writing library : XviD 1.2.0.dev47 (UTC 2006-11-01)
Audio #1
ID : 1
Format : AC-3
Format/Info : Audio Coding 3
Mode extension : CM (complete main)
Format settings, Endianness : Big
Codec ID : 2000
Duration : 1h 27mn
Bit rate mode : Constant
Bit rate : 192 Kbps
Channel(s) : 2 channels
Channel positions : Front: L R
Sampling rate : 48.0 KHz
Compression mode : Lossy
Stream size : 120 MiB (9%)
Alignment : Split accross interleaves
Interleave, duration : 40 ms (1.00 video frame)
Interleave, preload duratio : 500 ms
Audio #2
ID : 2
Format : AC-3
Format/Info : Audio Coding 3
Mode extension : CM (complete main)
Format settings, Endianness : Big
Codec ID : 2000
Duration : 1h 27mn
Bit rate mode : Constant
Bit rate : 640 Kbps
Channel(s) : 6 channels
Channel positions : Front: L C R, Side: L R, LFE
Sampling rate : 48.0 KHz
Compression mode : Lossy
Stream size : 401 MiB (29%)
Alignment : Split accross interleaves
Interleave, duration : 40 ms (1.00 video frame)
Interleave, preload duratio : 500 ms

Скриншот c названием фильма

Скриншоты

To download the content you need:
1. Download and install torrent client [for Windows] or for mobile system
2. Click on [Download]
Attention.
If the test YOU are NOT a ROBOT - does not work, then You are using an outdated browser.
Install the current browser and click on [Download]

Do not work with Yandex browser. Uploading files to them is erroneous.
Security: torrent client is allowed by Kaspersky.

[en.asmlocator.ru].t4888.torrent 
Torrent: Registered [ 2015-12-02 05:40 ] · C4107C2E8BC905AB57FDB0BF4716322681EA3B33

Download .torrent

Download

14 KB

Status: checked
Completed: 1 times
Size: 1.36 GB
terms.php
[Profile] [PM]
Display posts:    
Reply to topic

Current time is: 31-Mar 16:12

All times are UTC ± 0



You cannot post new topics in this forum
You cannot reply to topics in this forum
You cannot edit your posts in this forum
You cannot delete your posts in this forum
You cannot vote in polls in this forum
You cannot attach files in this forum
You can download files in this forum
Верим фактам, а не вранью Путина! Факт, что Правительство ведёт Россию к истреблению.
Так как численность населения падает, даже не смотря на приток эмигрантов!
Русская нация вымирает и вырождается, смешиваясь с эмигрантами!
Факт, что военных и граждан предприятий заставляют голосовать за партию Единая Россия и Путина
ПОД СТРАХОМ УВОЛЬНЕНИЯ!
Нам не нужно Правительство, блокирующее личную жизнь, интернет, нарушающее сохранность данных.
Все эти действия финансируются за счёт народа!