Изображая Бога / Игра в бога / Играя в бога / Playing God (Энди Уилсон / Andy Wilson) [1997, США, триллер, драма, криминал, BDRip] AVO (Визгунов)

Reply to topic
DL-List and Torrent activity
Size:  1.46 GB   |    Registered:  4 years 4 months   |    Completed:  0 times

Seeder not seen: Never

 
   
 
 
Author Message

star21 ®

Gender: Female

Longevity: 4 years 4 months

Posts: 551945

Location: Екатеринбург

Post 02-Dec-2015 05:43

[Quote]

Изображая Бога / Игра в бога / Играя в бога / Playing God
Страна: США
Жанр: триллер, драма, криминал
Год выпуска: 1997
Продолжительность: 01:34:05
Перевод: Авторский (одноголосый закадровый) Визгунов
Cубтитры: нет
Оригинальная аудиодорожка: нет
Режиссер: Энди Уилсон / Andy Wilson
В ролях: Дэвид Духовны, Тимоти Хаттон, Анджелина Джоли, Майкл Масси, Петер Стормаре, Эндрю Тирнан, Гари Дурдан, Джон Хоукс, Уилл Стюарт, Филип Мун
Описание: Блестящего хирурга лишают лицензии за употребление наркотиков — у него под ножом умерла пациентка. Избрав себе в качестве утешителя синтетический заменитель героина, он большую часть времени пребывает в состоянии, позволяющем забыть о прошлом и будущем. При покупке очередной дозы в баре, он становится свидетелем бандитской разборки и спасает жизнь одному из раненых, применив свой талант хирурга. Глава одной из группировок предлагает доктору практиковать нелегально. 10000 за операцию — а пациентов хватает — оказываются веским аргументом, да и у самого хирурга руки тоскуют по скальпелю. Он соглашается…
Доп. информация:
Видео из раздачи -GuNNeR-
Надо сказать перевод был наговорен на "тряпочную копию", по этому оригинальный звук довольно специфичный, да и ещё было запитченно
Сэмпл: http://sendfile.su/1150768
Качество видео: BDRip
Формат видео: AVI
Видео: 688x384 (1.79:1), 23.976 fps, XviD build 65 ~2027 kbps avg, 0.32 bit/pixel
Аудио: 48 kHz, AC3 Dolby Digital, 2/0 (L,R) ch, ~192 kbps

MediaInfo

Формат : AVI
Формат/Информация : Audio Video Interleave
Размер файла : 1,46 Гбайт
Продолжительность : 1 ч. 34 м.
Общий поток : 2228 Кбит/сек
Программа кодирования : VirtualDubMod 1.5.10.3 || (build 2550/release)
Библиотека кодирования : VirtualDub build 34807/release
Видео
Идентификатор : 0
Формат : MPEG-4 Visual
Профиль формата : Advanced Simple@L5
Параметр BVOP формата : 2
Параметр QPel формата : Нет
Параметр GMC формата : Без точки перехода
Параметр матрицы формата : Выборочная
Идентификатор кодека : XVID
Идентификатор кодека/Подсказка : XviD
Продолжительность : 1 ч. 34 м.
Битрейт : 2027 Кбит/сек
Ширина : 688 пикселей
Высота : 384 пикселя
Соотношение сторон : 16:9
Частота кадров : 23,976 кадра/сек
Цветовое пространство : YUV
Субдискретизация насыщенности : 4:2:0
Битовая глубина : 8 бит
Тип развёртки : Прогрессивная
Метод сжатия : С потерями
Бит/(Пиксели*Кадры) : 0.320
Размер потока : 1,33 Гбайт (91%)
Библиотека кодирования : XviD 65
Аудио
Идентификатор : 1
Формат : AC-3
Формат/Информация : Audio Coding 3
Расширение режима : CM (complete main)
Идентификатор кодека : 2000
Продолжительность : 1 ч. 34 м.
Вид битрейта : Постоянный
Битрейт : 192 Кбит/сек
Каналы : 2 канала
Расположение каналов : Front: L R
Частота : 48,0 КГц
Битовая глубина : 16 бит
Метод сжатия : С потерями
Размер потока : 129 Мбайт (9%)
Выравнивание : Соединение по промежуткам
Продолжительность промежутка : 42 мс. (1,00 видеокадр)
Время предзагрузки промежутка : 512 мс.

Скриншоты

To download the content you need:
1. Download and install torrent client [for Windows] or for mobile system
2. Click on [Download]
Attention.
If the test YOU are NOT a ROBOT - does not work, then You are using an outdated browser.
Install the current browser and click on [Download]

Do not work with Yandex browser. Uploading files to them is erroneous.
Security: torrent client is allowed by Kaspersky.

[en.asmlocator.ru].t4887.torrent 
Torrent: Registered [ 2015-12-02 05:40 ] · 8B11A1FA440B5534893405FD9A861871CDBE1C7A

Download .torrent

Download

30 KB

Status: checked
Completed: 0 times
Size: 1.46 GB
terms.php
[Profile] [PM]
Display posts:    
Reply to topic

Current time is: 04-Apr 15:17

All times are UTC ± 0



You cannot post new topics in this forum
You cannot reply to topics in this forum
You cannot edit your posts in this forum
You cannot delete your posts in this forum
You cannot vote in polls in this forum
You cannot attach files in this forum
You can download files in this forum
Верим фактам, а не вранью Путина! Факт, что Правительство ведёт Россию к истреблению.
Так как численность населения падает, даже не смотря на приток эмигрантов!
Русская нация вымирает и вырождается, смешиваясь с эмигрантами!
Факт, что военных и граждан предприятий заставляют голосовать за партию Единая Россия и Путина
ПОД СТРАХОМ УВОЛЬНЕНИЯ!
Нам не нужно Правительство, блокирующее личную жизнь, интернет, нарушающее сохранность данных.
Все эти действия финансируются за счёт народа!