Вулкан: Горный Огонь / Вулкан: Огненная Гора / Вулкан: Огонь на Горе / Volcano: Fire on the Mountain (Грэм Кэмпбелл / Graeme Campbell) [1997, США, боевик, драма, DVDRip] DVO (Екатеринбург Арт) + AVO (Дольский)

Reply to topic
DL-List and Torrent activity
Size:  1.53 GB   |    Registered:  4 years 3 months   |    Completed:  0 times

Seeder not seen: Never

 
   
 
 
Author Message

star21 ®

Gender: Female

Longevity: 4 years 4 months

Posts: 551945

Location: Екатеринбург

Post 02-Dec-2015 05:43

[Quote]

Вулкан: Горный Огонь / Вулкан: Огненная Гора / Вулкан: Огонь на Горе / Volcano: Fire on the Mountain-Никто не слушал предостережений...
И вот на город надвигается огнедышащая лавина.
Как остановить этот смертоносный поток?
Новый подарок поклонникам "Смерча", "Пика Данте" и "Астероида".
Фильм-катастрофа в лучших традициях жанра.
- Год выпуска: 1997
Страна: США
Жанр: боевик, драма
Продолжительность: 01:29:52
Перевод: Профессиональный (двухголосый закадровый) - Екатеринбург Арт
Перевод 2: Авторский (одноголосый закадровый) - Андрей Дольский
Cубтитры: нет
Режиссер: Грэм Кэмпбелл / Graeme Campbell
В ролях: Дэн Кортезе (Peter Slater), Синтия Гибб (Kelly Adams), Брайан Кервин (Buck Adams), Дон С. Дэвис (Mayor Bob Hart), Линда Бойд (Maureen), Колин Каннингэм (Stan Sinclair), Мика Гарднер (Jason), Джон Новак (Corben), Кендалл Кросс (Beth), Яно Франдсен (Bill Webb)-Мировая премьера: 23 февраля 1997-Описание: Высокогорный курорт Энджел-Лэйкс расположен в долине между нескольких заснеженных вершин, и хотя одна из них Энджел-Пик — склон потухшего вулкана — здесь уже несколько столетий не наблюдалось никакой сейсмической активности, не то чтобы даже вулканической. Здесь расположен маленький городишко, центром которого является гостиница для туристов — любителей горнолыжного спорта. Сюда приезжает вулканолог Питер Слэйтер для изучения изменившийся в этом районе сейсмологической ситуации. Тем более, что несколько лет назад он здесь работал горноспасателем, и здесь же продолжает трудиться его бывшая подружка Келли Адамс и ее брат Бак — шеф местного полицейского участка. Сразу же по приезде вулканолога в Энджел-Лэйкс начали проявляться первые признаки пробуждения вулкана — выбросы водорода, отчего чуть не погибло несколько людей. В общем, лыжную трассу необходимо закрыть, но ведь это настоящий удар по курортному бизнесу. Мэр городка Боб Харт, естественно, недоволен, но больше всех от этого известия взбесился местный нувориш Корбин. Как никак, сюда приехал богатый инвестор из Лос-Анджелеса Билл Уэбб со своей женой Брендой и в случае подписания контракта это сулило многомиллионный контракт. Но затем начались первые подземные толчки. Городок остался без электроэнергии и телефонной связи, да к тому же горный завал заключил это место в каменную ловушку.-Исходник видео: из СГ.-Благодарности:
- собственная оцифровка перевода со своей лицензионной видеокассеты от видео-компании Екатеринбург Арт.
- собственная оцифровка Дольского со своей видеокассеты.
- синхронизация переводов.-Перевод Дольского на трекере появляется впервые.
Перевод Екатеринбург Арт на трекере уже есть, но у меня в раздаче более лучший звук по качеству.
В сэмпле сравнение со звуком - моя дорожка № 1, дорожка из той раздачи - № 2.
.-На русский язык фильм подготовлен к показу студией "Ракурс" по заказу компании Екатеринбург Арт Home Video.
Текст читают Дмитрий Полонский и Людмила Гнилова.-Рейтинг

MPAA: R - Лицам до 17 лет обязательно присутствие взрослого.-Качество видео: DVDRip
Формат видео: AVI -> //СЭМПЛ//
Видео: XviD, 704x528 (4:3), 23.976 fps, 2044 kbps avg
Аудио:
1 - 48 khz, AC3 Dolby Digital, 2/0 (L,R) ch, ~192 kbps [Екатеринбург Арт] VHSRip
2 - 48 khz, AC3 Dolby Digital, 2/0 (L,R) ch, ~192 kbps [Дольский] VHSRip отдельным файлом

MediaInfo

General
Complete name : E:\Торрент Файлы\Будущие Релизы на Трекере\1.35 - 1.46 и более гб\Вулкан; Горный Огонь (Екатеринбург Арт + Дольский)\Вулкан; Горный Огонь (Екатеринбург Арт).avi
Format : AVI
Format/Info : Audio Video Interleave
File size : 1.41 GiB
Duration : 1h 29mn
Overall bit rate : 2 245 Kbps
Writing application : VirtualDubMod 1.5.10.3 | www.virtualdub-fr.org || (build 2550/release)
Writing library : VirtualDubMod build 2550/release
Video
ID : 0
Format : MPEG-4 Visual
Format profile : Advanced Simple@L5
Format settings, BVOP : 1
Format settings, QPel : No
Format settings, GMC : No warppoints
Format settings, Matrix : Custom
Codec ID : XVID
Codec ID/Hint : XviD
Duration : 1h 29mn
Bit rate : 2 044 Kbps
Width : 704 pixels
Height : 528 pixels
Display aspect ratio : 4:3
Frame rate : 23.976 fps
Color space : YUV
Chroma subsampling : 4:2:0
Bit depth : 8 bits
Scan type : Progressive
Compression mode : Lossy
Bits/(Pixel*Frame) : 0.229
Stream size : 1.28 GiB (91%)
Writing library : XviD 1.2.1 (UTC 2008-12-04)
Audio
ID : 1
Format : AC-3
Format/Info : Audio Coding 3
Mode extension : CM (complete main)
Format settings, Endianness : Big
Codec ID : 2000
Duration : 1h 29mn
Bit rate mode : Constant
Bit rate : 192 Kbps
Channel(s) : 2 channels
Channel positions : Front: L R
Sampling rate : 48.0 KHz
Compression mode : Lossy
Stream size : 123 MiB (9%)
Alignment : Split accross interleaves
Interleave, duration : 42 ms (1.00 video frame)
Interleave, preload duratio : 500 ms

Скриншот c названием фильма

Скриншоты

To download the content you need:
1. Download and install torrent client [for Windows] or for mobile system
2. Click on [Download]
Attention.
If the test YOU are NOT a ROBOT - does not work, then You are using an outdated browser.
Install the current browser and click on [Download]

Do not work with Yandex browser. Uploading files to them is erroneous.
Security: torrent client is allowed by Kaspersky.

[en.asmlocator.ru].t4884.torrent 
Torrent: Registered [ 2015-12-02 05:40 ] · 41FF6B6DA5F99A1BA77708A83C6A56D701B3A89E

Download .torrent

Download

16 KB

Status: checked
Completed: 0 times
Size: 1.53 GB
terms.php
[Profile] [PM]
Display posts:    
Reply to topic

Current time is: 29-Mar 17:55

All times are UTC ± 0



You cannot post new topics in this forum
You cannot reply to topics in this forum
You cannot edit your posts in this forum
You cannot delete your posts in this forum
You cannot vote in polls in this forum
You cannot attach files in this forum
You can download files in this forum
Верим фактам, а не вранью Путина! Факт, что Правительство ведёт Россию к истреблению.
Так как численность населения падает, даже не смотря на приток эмигрантов!
Русская нация вымирает и вырождается, смешиваясь с эмигрантами!
Факт, что военных и граждан предприятий заставляют голосовать за партию Единая Россия и Путина
ПОД СТРАХОМ УВОЛЬНЕНИЯ!
Нам не нужно Правительство, блокирующее личную жизнь, интернет, нарушающее сохранность данных.
Все эти действия финансируются за счёт народа!