Тайная Миссия / Subterfuge (Херб Фрид / Herb Freed) [1996, США, боевик, драма, DVDRip] DVO (Екатеринбург Арт)

Reply to topic
DL-List and Torrent activity
Size:  1.37 GB   |    Registered:  4 years 4 months   |    Completed:  0 times

Seeder not seen: 1 year 1 month

 
   
 
 
Author Message

star21 ®

Gender: Female

Longevity: 4 years 4 months

Posts: 551945

Location: Екатеринбург

Post 02-Dec-2015 05:43

[Quote]

Тайная Миссия / Subterfuge-Новый "ДжеймсБондовский" боевик с захватывающим и напряжённым сюжетом в духе "Смертельного Оружия".
В главной роли крутого спецназовца из команды "Морские Котики" звезда "Сокрушителя" и "Красного Скорпиона 2".
- Год выпуска: 1996
Страна: США
Жанр: боевик, драма
Продолжительность: 01:35:14
Перевод: Профессиональный (двухголосый закадровый) - Екатеринбург Арт
Cубтитры: нет
Режиссер: Херб Фрид / Herb Freed
В ролях: Мэтт МакКольм (Jonathan Slade), Аманда Пэйс (Alex), Джейсон Гулд (Alfie Slade), Ричард Брэйк (Pierce Tencil), Глинн Тёрмен (Stallworth Hubbs), Бен Хаммер (Vladimire Tiomkin), Адам Грегор (Colonel Yuri Svetlanov), Крикор Сатамьян (Cab Driver), Тони Абатемарко (Salazar), Ричард Балин (Nightclub MC)-Мировая премьера: 23 февраля 1996-Описание: Пассажирский самолет, выполняющий чартерный рейс из Анкары в Штутгарт, сбит над Черным морем русским «МИГом». Среди пассажиров был правительственный курьер, посланный, чтобы вернутьбесценное содержимое пристегнутой к его запястью металлической черной коробочки, украденной тайным агентом ЦРУ, ставшим изменником. ЦРУ и Пентагон отправляют на шикарный курортный островок в Черном море, расположенный рядом с местом катастрофы, крутого спецназовца из команды «морские котики» Джонатана в «компании» феноменального компьютерного «хакера» Альфи и оперативного сотрудника спецслужб — красотки Алекс. Их задание: поднять коробочку со дна моря, не привлекая внимания к ее содержимому, и разобраться на месте с террористами.-Благодарности:
- .
- собственная оцифровка перевода со своей лицензионной видеокассеты от видео-компании Екатеринбург Арт.
- синхронизация перевода.-Перевод Екатеринбург Арт на трекере уже есть, но у меня в раздаче более лучший звук по качеству.
Сравнение со звуком в сэмпле внизу - моя дорожка № 1, дорожка из той раздачи - № 2.
-На русский язык фильм подготовлен к показу студией "Ракурс" по заказу компании Екатеринбург Арт Home Video.
Текст читают Александр Рахленко и Нина Тобилевич.-Рейтинг

MPAA: R - Лицам до 17 лет обязательно присутствие взрослого.-Качество видео: DVDRip
Формат видео: AVI -> //СЭМПЛ//
Видео: XviD, 640x480 (4:3), 23.976 fps, 1857 kbps avg
Аудио:
1 - 48 khz, AC3 Dolby Digital, 2/0 (L,R) ch, ~192 kbps [Екатеринбург Арт] VHSRip

MediaInfo

General
Complete name : E:\Торрент Файлы\Будущие Релизы на Трекере\1.35 - 1.46 и более гб\Тайная Миссия (Екатеринбург Арт).avi
Format : AVI
Format/Info : Audio Video Interleave
File size : 1.37 GiB
Duration : 1h 35mn
Overall bit rate : 2 059 Kbps
Writing application : VirtualDubMod 1.5.10.3 | www.virtualdub-fr.org || (build 2550/release)
Writing library : VirtualDubMod build 2550/release
Video
ID : 0
Format : MPEG-4 Visual
Format profile : Advanced Simple@L5
Format settings, BVOP : 1
Format settings, QPel : No
Format settings, GMC : No warppoints
Format settings, Matrix : Default (MPEG)
Codec ID : XVID
Codec ID/Hint : XviD
Duration : 1h 35mn
Bit rate : 1 857 Kbps
Width : 640 pixels
Height : 480 pixels
Display aspect ratio : 4:3
Frame rate : 23.976 fps
Color space : YUV
Chroma subsampling : 4:2:0
Bit depth : 8 bits
Scan type : Progressive
Compression mode : Lossy
Bits/(Pixel*Frame) : 0.252
Stream size : 1.24 GiB (90%)
Writing library : XviD 64
Audio
ID : 1
Format : AC-3
Format/Info : Audio Coding 3
Mode extension : CM (complete main)
Format settings, Endianness : Big
Codec ID : 2000
Duration : 1h 35mn
Bit rate mode : Constant
Bit rate : 192 Kbps
Channel(s) : 2 channels
Channel positions : Front: L R
Sampling rate : 48.0 KHz
Compression mode : Lossy
Stream size : 131 MiB (9%)
Alignment : Split accross interleaves
Interleave, duration : 42 ms (1.00 video frame)
Interleave, preload duratio : 500 ms

Скриншот c названием фильма

Скриншоты

To download the content you need:
1. Download and install torrent client [for Windows] or for mobile system
2. Click on [Download]
Attention.
If the test YOU are NOT a ROBOT - does not work, then You are using an outdated browser.
Install the current browser and click on [Download]

Do not work with Yandex browser. Uploading files to them is erroneous.
Security: torrent client is allowed by Kaspersky.

[en.asmlocator.ru].t4882.torrent 
Torrent: Registered [ 2015-12-02 05:40 ] · 8A16E63E11D7E60B44A1F34D08C2BC63EE881A78

Download .torrent

Download

14 KB

Status: checked
Completed: 0 times
Size: 1.37 GB
terms.php
[Profile] [PM]
Display posts:    
Reply to topic

Current time is: 03-Apr 11:36

All times are UTC ± 0



You cannot post new topics in this forum
You cannot reply to topics in this forum
You cannot edit your posts in this forum
You cannot delete your posts in this forum
You cannot vote in polls in this forum
You cannot attach files in this forum
You can download files in this forum
Верим фактам, а не вранью Путина! Факт, что Правительство ведёт Россию к истреблению.
Так как численность населения падает, даже не смотря на приток эмигрантов!
Русская нация вымирает и вырождается, смешиваясь с эмигрантами!
Факт, что военных и граждан предприятий заставляют голосовать за партию Единая Россия и Путина
ПОД СТРАХОМ УВОЛЬНЕНИЯ!
Нам не нужно Правительство, блокирующее личную жизнь, интернет, нарушающее сохранность данных.
Все эти действия финансируются за счёт народа!