Бегущий индеец / Индеец-беглец / The Indian Runner (Шон Пенн / Sean Penn) [1991, США, Япония, драма, VHSRip] AVO (Гаврилов)

Reply to topic
DL-List and Torrent activity
Size:  1.46 GB   |    Registered:  4 years 4 months   |    Completed:  0 times

Seeder not seen: Never

 
   
 
 
Author Message

star21 ®

Gender: Female

Longevity: 4 years 4 months

Posts: 551945

Location: Екатеринбург

Post 02-Dec-2015 05:43

[Quote]

Бегущий индеец / Индеец-беглец / The Indian Runner
[Full Screen] Open Matte (???)
Страна: США, Япония
Жанр: драма
Год выпуска: 1991
Продолжительность: 02:06:29
Перевод: Авторский (одноголосый закадровый) Андрей Гаврилов [перевел как Бегущий индеец]
Cубтитры: нет
Режиссер: Шон Пенн / Sean Penn
В ролях: Дэвид Морс, Вигго Мортенсен, Валерия Голино, Патриция Аркетт, Чарльз Бронсон, Сэнди Деннис, Деннис Хоппер, Джордан Родс, Энцо Росси, Гарри Крю
Описание: Аннотация от alenavova:
Джо старше Фрэнка на 5 лет. В детстве братья играли вместе - в ковбоев, индейцев, в охотника и медведя. Джо постоянно опекал младшего брата, но Фрэнку все равно доставалось немало родительских упреков. И, когда Фрэнк вырос, он ушел в армию. На его долю пришелся еще и Вьетнам. В 1968 году он вернулся с войны и встретился с Джо, который, забросив фермерство, стал полицейским. Вскоре из другого штата, куда уехал Фрэнк, начали поступать тревожные вести... Каин и Авель... С библейских времен, когда брат убил брата, человечество пытается понять, где же истоки той "любви-ненависти", которая очень часто мертвым узлом связывает родственных по крови людей. И вряд ли есть что-либо страшнее и необратимее, чем гражданская война, разделяющая не страны, а души человеческие. Родителей и детей. Братьев и сестер. Или двух родных братьев... В роли отца - Чарлз Бронсон, матери - Сэнди Дэннис (ее последняя кинороль).
Доп. информация: Оцифровка VHS (личный архив) и получение VHSRip alenavova
Эксклюзив для rutracker.org. При размещении данного релиза на других сайтах ссылка на автора alenavova обязательна.

Релиз
Сэмпл: https://yadi.sk/i/5si4NUBZirpMz
Качество видео: VHSRip
Формат видео: AVI
Видео: 704x512 (1.38:1), 25 fps, XviD build 50 ~1455 kbps avg, 0.16 bit/pixel
Аудио: 48 kHz, AC3 Dolby Digital, 2/0 (L,R) ch, ~192 kbps

MediaInfo

Бегущий индеец - The Indian Runner (by alenavova).avi
Format : AVI
Format/Info : Audio Video Interleave
File size : 1.46 GiB
Duration : 2h 6mn
Overall bit rate : 1 658 Kbps
Movie name : Бегущий индеец - The Indian Runner (by alenavova)
Director : by alenavova
Writing application : VirtualDubMod 1.5.10.3 | www.virtualdub-fr.org || (build 2550/release)
Copyright : Edich2
Comment : RuTracker.org
Video
ID : 0
Format : MPEG-4 Visual
Format profile : Advanced Simple@L5
Format settings, BVOP : 1
Format settings, QPel : No
Format settings, GMC : No warppoints
Format settings, Matrix : Default (MPEG)
Codec ID : XVID
Codec ID/Hint : XviD
Duration : 2h 6mn
Bit rate : 1 456 Kbps
Width : 704 pixels
Height : 512 pixels
Display aspect ratio : 1.375
Frame rate : 25.000 fps
Color space : YUV
Chroma subsampling : 4:2:0
Bit depth : 8 bits
Scan type : Progressive
Compression mode : Lossy
Bits/(Pixel*Frame) : 0.162
Stream size : 1.29 GiB (88%)
Writing library : XviD 1.2.1 (UTC 2008-12-04)
Audio
ID : 1
Format : AC-3
Format/Info : Audio Coding 3
Mode extension : CM (complete main)
Format settings, Endianness : Big
Codec ID : 2000
Duration : 2h 6mn
Bit rate mode : Constant
Bit rate : 192 Kbps
Channel(s) : 2 channels
Channel positions : Front: L R
Sampling rate : 48.0 KHz
Bit depth : 16 bits
Compression mode : Lossy
Stream size : 174 MiB (12%)
Alignment : Split accross interleaves
Interleave, duration : 40 ms (1.00 video frame)
Interleave, preload duration : 500 ms

Скриншоты



To download the content you need:
1. Download and install torrent client [for Windows] or for mobile system
2. Click on [Download]
Attention.
If the test YOU are NOT a ROBOT - does not work, then You are using an outdated browser.
Install the current browser and click on [Download]

Do not work with Yandex browser. Uploading files to them is erroneous.
Security: torrent client is allowed by Kaspersky.

[en.asmlocator.ru].t4876.torrent 
Torrent: Registered [ 2015-12-02 05:40 ] · C925F64D15B7B1B85638EF7DD9560D5388B0DB36

Download .torrent

Download

15 KB

Status: checked
Completed: 0 times
Size: 1.46 GB
terms.php
[Profile] [PM]
Display posts:    
Reply to topic

Current time is: 05-Apr 02:26

All times are UTC ± 0



You cannot post new topics in this forum
You cannot reply to topics in this forum
You cannot edit your posts in this forum
You cannot delete your posts in this forum
You cannot vote in polls in this forum
You cannot attach files in this forum
You can download files in this forum
Верим фактам, а не вранью Путина! Факт, что Правительство ведёт Россию к истреблению.
Так как численность населения падает, даже не смотря на приток эмигрантов!
Русская нация вымирает и вырождается, смешиваясь с эмигрантами!
Факт, что военных и граждан предприятий заставляют голосовать за партию Единая Россия и Путина
ПОД СТРАХОМ УВОЛЬНЕНИЯ!
Нам не нужно Правительство, блокирующее личную жизнь, интернет, нарушающее сохранность данных.
Все эти действия финансируются за счёт народа!