Кошмар на улице Вязов 6: Фредди мертв / Freddy\'s Dead: The Final Nightmare (Рейчел Тэлалей / Rachel Talalay) [1991, США, ужасы, триллер, комедия, DVDRip-AVC] [Fullscreen] MVO (Позитив-Мультимедиа) + Original (Eng)

Reply to topic
DL-List and Torrent activity
Size:  2.18 GB   |    Registered:  4 years 7 months   |    Completed:  0 times

Seeder not seen: Never

 
   
 
 
Author Message

star21 ®

Gender: Female

Longevity: 4 years 8 months

Posts: 551945

Location: Екатеринбург

Post 02-Dec-2015 05:43

[Quote]

Кошмар на улице Вязов 6: Фредди мертв / Freddy's Dead: The Final Nightmare
Год выпуска: 1991
Страна: США
Жанр: ужасы, триллер, комедия
Продолжительность: 01:29:18
Перевод: профессиональный многоголосый закадровый (Позитив-Мультимедиа)
Оригинальная аудиодорожка: английская
Режиссёр: Рейчел Тэлалей /Rachel Talalay/
В ролях: Роберт Инглунд /Robert Englund/, Лиза Зейн /Lisa Zane/, Шон Гринблатт /Shon Greenblatt/, Лесли Дин /Lezlie Deane/, Рики Дин Логан /Ricky Dean Logan/, Брекин Мейер /Breckin Meyer/, Яфет Котто /Yaphet Kotto/, Том Арнольд /Tom Arnold/, Розанна /Roseanne Barr/, Элинор Донахью /Elinor Donahue/
Описание:
Здесь выясняются причины появления духа-изверга Фредди Крюгера, с самого начала мстившего жителям своего родного городка. С детства заброшенный всеми, Фредди вырос очень озлобленным. Его терзает мания убийства, и он убивает детей, заманивая их в старую котельную. Когда суд по формальным причинам выносит маньяку оправдательный приговор, разъяренные родители жертв линчуют его.
Дополнительная информация:
[imdb]http://www.imdb.com/title/tt0101917[/imdb]: 4.9/10 (28,073 votes)
Рейтинг фильма КиноПоиск.Ru→: 6.034 (10 001 голос)
Качество: DVDRip-AVC
Контейнер: MKV
Видеопоток: 714x480@714x540, 23.976 fps, x264 ~2600 kbps
Аудиопоток №1 (RUS): DD 5.1, 48 kHz, 448 kbps | профессиональный многоголосый закадровый (Позитив-Мультимедиа)
Аудиопоток №2 (ENG): DD 5.1, 48 kHz, 448 kbps
Сэмпл: Яндекс.Диск→, multi-up→, sendspace→

x264 Log

x264 [info]: frame I:1004  Avg QP:15.04  size: 59909
x264 [info]: frame P:26460 Avg QP:17.09  size: 26489
x264 [info]: frame B:100991 Avg QP:19.47  size:  9699
x264 [info]: consecutive B-frames:  1.5%  1.9%  6.7% 18.0% 16.6% 47.9%  4.3%  1.2%  0.6%  0.4%  0.2%  0.3%  0.1%  0.1%  0.1%  0.0%  0.1%
encoded 128455 frames, 11.09 fps, 2599.01 kb/s

MediaInfo

General
Unique ID                                : 251089796124645856822802898911699609891 (0xBCE622BDCD6764EE8805FA8A4D7F2923)
Complete name                            : Freddys.Dead.The.Final.Nightmare.1991.DVDRip.x264.DD-d0ber.mkv
Format                                   : Matroska
Format version                           : Version 4 / Version 2
File size                                : 2.18 GiB
Duration                                 : 1h 29mn
Overall bit rate                         : 3 497 Kbps
Movie name                               : Freddy's Dead: The Final Nightmare (1991) DVDRip by d0ber.maNN
Encoded date                             : UTC 2015-09-04 05:47:39
Writing application                      : mkvmerge v7.8.0 ('River Man') 64bit built on Mar 27 2015 16:31:37
Writing library                          : libebml v1.3.1 + libmatroska v1.4.2
DURATION                                 : 01:29:17.312000000
NUMBER_OF_FRAMES                         : 167416
NUMBER_OF_BYTES                          : 300009472
_STATISTICS_WRITING_APP                  : mkvmerge v7.8.0 ('River Man') 64bit built on Mar 27 2015 16:31:37
_STATISTICS_WRITING_DATE_UTC             : 2015-09-04 05:47:39
_STATISTICS_TAGS                         : BPS DURATION NUMBER_OF_FRAMES NUMBER_OF_BYTES
Video
ID                                       : 1
Format                                   : AVC
Format/Info                              : Advanced Video Codec
Format profile                           : High@L4.1
Format settings, CABAC                   : Yes
Format settings, ReFrames                : 16 frames
Codec ID                                 : V_MPEG4/ISO/AVC
Duration                                 : 1h 29mn
Bit rate                                 : 2 600 Kbps
Width                                    : 714 pixels
Height                                   : 480 pixels
Display aspect ratio                     : 4:3
Frame rate mode                          : Constant
Frame rate                               : 23.976 fps
Color space                              : YUV
Chroma subsampling                       : 4:2:0
Bit depth                                : 8 bits
Scan type                                : Progressive
Bits/(Pixel*Frame)                       : 0.316
Stream size                              : 1.58 GiB (72%)
Title                                    : 714x480@714x540, 23.976 fps, x264 ~2600 kbps
Writing library                          : x264 core 148 r2597 e86f3a1
Encoding settings                        : cabac=1 / ref=16 / deblock=1:-3:-3 / analyse=0x3:0x133 / me=umh / subme=10 / psy=1 / psy_rd=1.00:0.00 / mixed_ref=1 / me_range=64 / chroma_me=1 / trellis=2 / 8x8dct=1 / cqm=0 / deadzone=21,11 / fast_pskip=0 / chroma_qp_offset=-2 / threads=6 / lookahead_threads=1 / sliced_threads=0 / nr=0 / decimate=1 / interlaced=0 / bluray_compat=0 / constrained_intra=0 / bframes=16 / b_pyramid=2 / b_adapt=2 / b_bias=0 / direct=3 / weightb=1 / open_gop=0 / weightp=2 / keyint=240 / keyint_min=23 / scenecut=40 / intra_refresh=0 / rc_lookahead=240 / rc=2pass / mbtree=0 / bitrate=2600 / ratetol=1.0 / qcomp=0.75 / qpmin=0 / qpmax=69 / qpstep=4 / cplxblur=20.0 / qblur=0.5 / vbv_maxrate=62500 / vbv_bufsize=78125 / nal_hrd=none / filler=0 / ip_ratio=1.40 / pb_ratio=1.30 / aq=1:0.80
Language                                 : English
Default                                  : Yes
Forced                                   : No
Audio #1
ID                                       : 2
Format                                   : AC-3
Format/Info                              : Audio Coding 3
Mode extension                           : CM (complete main)
Format settings, Endianness              : Big
Codec ID                                 : A_AC3
Duration                                 : 1h 29mn
Bit rate mode                            : Constant
Bit rate                                 : 448 Kbps
Channel(s)                               : 6 channels
Channel positions                        : Front: L C R, Side: L R, LFE
Sampling rate                            : 48.0 KHz
Bit depth                                : 16 bits
Compression mode                         : Lossy
Stream size                              : 286 MiB (13%)
Title                                    : RUS MVO Позитив-Мультимедиа DD 5.1, 48 kHz, 448 kbps
Language                                 : Russian
Default                                  : Yes
Forced                                   : No
Audio #2
ID                                       : 3
Format                                   : AC-3
Format/Info                              : Audio Coding 3
Mode extension                           : CM (complete main)
Format settings, Endianness              : Big
Codec ID                                 : A_AC3
Duration                                 : 1h 29mn
Bit rate mode                            : Constant
Bit rate                                 : 448 Kbps
Channel(s)                               : 6 channels
Channel positions                        : Front: L C R, Side: L R, LFE
Sampling rate                            : 48.0 KHz
Bit depth                                : 16 bits
Compression mode                         : Lossy
Stream size                              : 286 MiB (13%)
Title                                    : ENG DD 5.1, 48 kHz, 448 kbps
Language                                 : English
Default                                  : No
Forced                                   : No

Скриншоты


Source vs. Rip


Fullscreen vs. Widescreen


-

To download the content you need:
1. Download and install torrent client [for Windows] or for mobile system
2. Click on [Download]
Attention.
If the test YOU are NOT a ROBOT - does not work, then You are using an outdated browser.
Install the current browser and click on [Download]

Do not work with Yandex browser. Uploading files to them is erroneous.
Security: torrent client is allowed by Kaspersky.

[en.asmlocator.ru].t4875.torrent 
Torrent: Registered [ 2015-12-02 05:40 ] · 23EEFFE1DA0F9F4015CBFD8CFA016996B3324A15

Download .torrent

Download

11 KB

Status: checked
Completed: 0 times
Size: 2.18 GB
terms.php
[Profile] [PM]
Display posts:    
Reply to topic

Current time is: 11-Jul 20:15

All times are UTC ± 0



You cannot post new topics in this forum
You cannot reply to topics in this forum
You cannot edit your posts in this forum
You cannot delete your posts in this forum
You cannot vote in polls in this forum
You cannot attach files in this forum
You can download files in this forum
Верим фактам, а не вранью Путина! Факт, что Правительство ведёт Россию к истреблению.
Так как численность населения падает, даже не смотря на приток эмигрантов!
Русская нация вымирает и вырождается, смешиваясь с эмигрантами!
Факт, что военных и граждан предприятий заставляют голосовать за партию Единая Россия и Путина
ПОД СТРАХОМ УВОЛЬНЕНИЯ!
Нам не нужно Правительство, блокирующее личную жизнь, интернет, нарушающее сохранность данных.
Все эти действия финансируются за счёт народа!