Кошмар на улице Вязов 7 / New Nightmare (Уэс Крэйвен / Wes Craven) [1994, США, ужасы, фэнтези, триллер, детектив, DVDRip-AVC] [Fullscreen] MVO (Позитив-Мультимедиа) + Original (Eng)

Reply to topic
DL-List and Torrent activity
Size:  2.91 GB   |    Registered:  4 years 3 months   |    Completed:  0 times

Seeder not seen: Never

 
   
 
 
Author Message

star21 ®

Gender: Female

Longevity: 4 years 4 months

Posts: 551945

Location: Екатеринбург

Post 02-Dec-2015 05:43

[Quote]

Кошмар на улице Вязов 7 / New Nightmare
Год выпуска: 1994
Страна: США
Жанр: ужасы, фэнтези, триллер, детектив
Продолжительность: 01:52:16
Перевод: профессиональный многоголосый закадровый (Позитив-Мультимедиа)
Оригинальная аудиодорожка: английская
Режиссёр: Уэс Крэйвен /Wes Craven/
В ролях: Хэзер Лэнгенкэмп /Heather Langenkamp/, Роберт Инглунд /Robert Englund/, Мико Хьюз /Miko Hughes/, Джон Сэксон /John Saxon/, Трэйси Миддендорф /Tracy Middendorf/, Дэвид Ньюсом /David Newsom/, Фран Беннетт /Fran Bennett/, Уэс Крэйвен /Wes Craven/, Роберт Шэй /Robert Shaye/, Марианн Маддалена /Marianne Maddalena/
Описание:
На съёмках очередной серии фильма «Кошмар на улице Вязов» происходит несчастный случай: новая, технически совершенная перчатка Фредди убивает работников со спецэффектами и ранит Чейза Портера — мужа Хизер Ландженкамп, исполнительницы роли Нэнси. Сын Хизер исчезает непонятным образом. Но вот Хизер просыпается из-за землетрясения и понимает, что это был всего лишь сон. Однако её муж порезал пальцы именно так, как это случилось в её сне…
Дополнительная информация:
[imdb]http://www.imdb.com/title/tt0111686[/imdb]: 6.4/10 (34,588 votes)
Рейтинг фильма КиноПоиск.Ru→: 6.382 (8 186 голосов)
Качество: DVDRip-AVC
Контейнер: MKV
Видеопоток: 718x480@718x540, 23.976 fps, x264 ~2810 kbps
Аудиопоток №1 (RUS): DD 5.1, 48 kHz, 448 kbps | профессиональный многоголосый закадровый (Позитив-Мультимедиа)
Аудиопоток №2 (ENG): DD 5.1, 48 kHz, 448 kbps
Сэмпл: Яндекс.Диск→, multi-up→, sendspace→

x264 Log

x264 [info]: frame I:1266  Avg QP:13.95  size: 53446
x264 [info]: frame P:33490 Avg QP:15.73  size: 28324
x264 [info]: frame B:126763 Avg QP:18.28  size: 10645
x264 [info]: consecutive B-frames:  1.6%  1.6% 13.3%  9.8%  7.0% 61.8%  1.9%  0.7%  0.5%  0.3%  0.3%  0.2%  0.2%  0.2%  0.3%  0.1%  0.2%
encoded 161519 frames, 10.83 fps, 2809.29 kb/s

MediaInfo

General
Unique ID                                : 213180105799911950245311816086359379147 (0xA060FEB3C86A6A2FA34DF16FB6280CCB)
Complete name                            : New.Nightmare.1994.DVDRip.x264.DD-d0ber.mkv
Format                                   : Matroska
Format version                           : Version 4 / Version 2
File size                                : 2.91 GiB
Duration                                 : 1h 52mn
Overall bit rate                         : 3 707 Kbps
Movie name                               : New Nightmare (1994) DVDRip by d0ber.maNN
Encoded date                             : UTC 2015-09-04 12:16:44
Writing application                      : mkvmerge v7.8.0 ('River Man') 64bit built on Mar 27 2015 16:31:37
Writing library                          : libebml v1.3.1 + libmatroska v1.4.2
DURATION                                 : 01:52:16.672000000
NUMBER_OF_FRAMES                         : 210521
NUMBER_OF_BYTES                          : 377253632
_STATISTICS_WRITING_APP                  : mkvmerge v7.8.0 ('River Man') 64bit built on Mar 27 2015 16:31:37
_STATISTICS_WRITING_DATE_UTC             : 2015-09-04 12:16:44
_STATISTICS_TAGS                         : BPS DURATION NUMBER_OF_FRAMES NUMBER_OF_BYTES
Video
ID                                       : 1
Format                                   : AVC
Format/Info                              : Advanced Video Codec
Format profile                           : High@L4.1
Format settings, CABAC                   : Yes
Format settings, ReFrames                : 16 frames
Codec ID                                 : V_MPEG4/ISO/AVC
Duration                                 : 1h 52mn
Bit rate                                 : 2 810 Kbps
Width                                    : 718 pixels
Height                                   : 480 pixels
Display aspect ratio                     : 4:3
Frame rate mode                          : Constant
Frame rate                               : 23.976 fps
Color space                              : YUV
Chroma subsampling                       : 4:2:0
Bit depth                                : 8 bits
Scan type                                : Progressive
Bits/(Pixel*Frame)                       : 0.340
Stream size                              : 2.15 GiB (74%)
Title                                    : 718x480@714x540, 23.976 fps, x264 ~2810 kbps
Writing library                          : x264 core 148 r2597 e86f3a1
Encoding settings                        : cabac=1 / ref=16 / deblock=1:-3:-3 / analyse=0x3:0x133 / me=umh / subme=10 / psy=1 / psy_rd=1.00:0.00 / mixed_ref=1 / me_range=64 / chroma_me=1 / trellis=2 / 8x8dct=1 / cqm=0 / deadzone=21,11 / fast_pskip=0 / chroma_qp_offset=-2 / threads=6 / lookahead_threads=1 / sliced_threads=0 / nr=0 / decimate=1 / interlaced=0 / bluray_compat=0 / constrained_intra=0 / bframes=16 / b_pyramid=2 / b_adapt=2 / b_bias=0 / direct=3 / weightb=1 / open_gop=0 / weightp=2 / keyint=240 / keyint_min=23 / scenecut=40 / intra_refresh=0 / rc_lookahead=240 / rc=2pass / mbtree=0 / bitrate=2810 / ratetol=1.0 / qcomp=0.75 / qpmin=0 / qpmax=69 / qpstep=4 / cplxblur=20.0 / qblur=0.5 / vbv_maxrate=62500 / vbv_bufsize=78125 / nal_hrd=none / filler=0 / ip_ratio=1.40 / pb_ratio=1.30 / aq=1:0.80
Language                                 : English
Default                                  : Yes
Forced                                   : No
Audio #1
ID                                       : 2
Format                                   : AC-3
Format/Info                              : Audio Coding 3
Mode extension                           : CM (complete main)
Format settings, Endianness              : Big
Codec ID                                 : A_AC3
Duration                                 : 1h 52mn
Bit rate mode                            : Constant
Bit rate                                 : 448 Kbps
Channel(s)                               : 6 channels
Channel positions                        : Front: L C R, Side: L R, LFE
Sampling rate                            : 48.0 KHz
Bit depth                                : 16 bits
Compression mode                         : Lossy
Stream size                              : 360 MiB (12%)
Title                                    : RUS MVO Позитив-Мультимедиа DD 5.1, 48 kHz, 448 kbps
Language                                 : Russian
Default                                  : Yes
Forced                                   : No
Audio #2
ID                                       : 3
Format                                   : AC-3
Format/Info                              : Audio Coding 3
Mode extension                           : CM (complete main)
Format settings, Endianness              : Big
Codec ID                                 : A_AC3
Duration                                 : 1h 52mn
Bit rate mode                            : Constant
Bit rate                                 : 448 Kbps
Channel(s)                               : 6 channels
Channel positions                        : Front: L C R, Side: L R, LFE
Sampling rate                            : 48.0 KHz
Bit depth                                : 16 bits
Compression mode                         : Lossy
Stream size                              : 360 MiB (12%)
Title                                    : ENG DD 5.1, 48 kHz, 448 kbps
Language                                 : English
Default                                  : No
Forced                                   : No

Скриншоты


Source vs. Rip


Fullscreen vs. Widescreen


-

To download the content you need:
1. Download and install torrent client [for Windows] or for mobile system
2. Click on [Download]
Attention.
If the test YOU are NOT a ROBOT - does not work, then You are using an outdated browser.
Install the current browser and click on [Download]

Do not work with Yandex browser. Uploading files to them is erroneous.
Security: torrent client is allowed by Kaspersky.

[en.asmlocator.ru].t4874.torrent 
Torrent: Registered [ 2015-12-02 05:40 ] · 3D656EA647A68895A91FA999793CC8BEDA00DEE2

Download .torrent

Download

15 KB

Status: checked
Completed: 0 times
Size: 2.91 GB
terms.php
[Profile] [PM]
Display posts:    
Reply to topic

Current time is: 29-Mar 18:09

All times are UTC ± 0



You cannot post new topics in this forum
You cannot reply to topics in this forum
You cannot edit your posts in this forum
You cannot delete your posts in this forum
You cannot vote in polls in this forum
You cannot attach files in this forum
You can download files in this forum
Верим фактам, а не вранью Путина! Факт, что Правительство ведёт Россию к истреблению.
Так как численность населения падает, даже не смотря на приток эмигрантов!
Русская нация вымирает и вырождается, смешиваясь с эмигрантами!
Факт, что военных и граждан предприятий заставляют голосовать за партию Единая Россия и Путина
ПОД СТРАХОМ УВОЛЬНЕНИЯ!
Нам не нужно Правительство, блокирующее личную жизнь, интернет, нарушающее сохранность данных.
Все эти действия финансируются за счёт народа!