Гротеск / The Grotesque (Джон-Пол Дэвидсон / John-Paul Davidson) [1995, Великобритания, Триллер, драма, DVDRip] AVO Кашкин

Reply to topic
DL-List and Torrent activity
Size:  1.43 GB   |    Registered:  4 years 4 months   |    Completed:  0 times

Seeder not seen: Never

 
   
 
 
Author Message

star21 ®

Gender: Female

Longevity: 4 years 4 months

Posts: 551945

Location: Екатеринбург

Post 02-Dec-2015 05:43

[Quote]

Гротеск / The Grotesque
Страна: Великобритания
Жанр: Триллер, драма
Год выпуска: 1995
Продолжительность: 1:33:39
Перевод: Авторский (одноголосый закадровый) А. Кашкин(Первомайский)
Cубтитры: нет
Режиссер: Джон-Пол Дэвидсон / John-Paul Davidson
В ролях: Алан Бейтс , Тереза Расселл , Стинг , Лина Хиди , Джим Картер , Анна Мэсси , Труди Стайлер , Мария Аиткен ,
Джеймс Флит , Стивен Макинтош
Описание: В благополучной семье аристократа и палеонтолога сэра Хьюго появляется новый дворецкий по имени Фледж. Он обращает внимания, что сэр Хьюго слишком увлечен реконструкцией скелетов динозавров, что леди из-за этого скучает. Дворецкий раскрывает ей свои объятья. Но и это не все его таланты. Раскрывает дворецкий объятия и для жениха дочки сэра Хьюго…
Доп. информация: Благодарность за предоставленную дорогу Fikaloid и rambo pavel за наводку на релиз
Видеоряд nomove
Сэмпл: https://www.sendspace.com/file/wnsddc
Качество видео: DVDRip
Формат видео: AVI
Видео: DivX MPEG-4 , 704x528 (1.33:1) , 25.000 fps , 1 977 Kbps
Аудио: AC3 , 48 kHz , 192.00 kbps avg , 2/0 (L,R) ch

MediaInfo

Complete name Гротеск 1995.avi
Format : AVI
Format/Info : Audio Video Interleave
File size : 1.43 GiB
Duration : 1h 33mn
Overall bit rate : 2 179 Kbps
Video
ID : 0
Format : MPEG-4 Visual
Format settings, BVOP : 1
Format settings, QPel : No
Format settings, GMC : No warppoints
Format settings, Matrix : Default (H.263)
Codec ID : DX50
Codec ID/Hint : DivX 5
Duration : 1h 33mn
Bit rate : 1 977 Kbps
Width : 704 pixels
Height : 528 pixels
Display aspect ratio : 4:3
Frame rate : 25.000 fps
Color space : YUV
Chroma subsampling : 4:2:0
Bit depth : 8 bits
Scan type : Progressive
Compression mode : Lossy
Bits/(Pixel*Frame) : 0.213
Stream size : 1.29 GiB (91%)
Writing library : DivX 6.8.0 (UTC 2007-12-04)
Audio
ID : 1
Format : AC-3
Format/Info : Audio Coding 3
Mode extension : CM (complete main)
Format settings, Endianness : Big
Codec ID : 2000
Duration : 1h 33mn
Bit rate mode : Constant
Bit rate : 192 Kbps
Channel(s) : 2 channels
Channel positions : Front: L R
Sampling rate : 48.0 KHz
Compression mode : Lossy
Stream size : 129 MiB (9%)
Alignment : Aligned on interleaves
Interleave, duration : 40 ms (1.00 video frame)
Interleave, preload duratio : 512 ms

Скриншоты

To download the content you need:
1. Download and install torrent client [for Windows] or for mobile system
2. Click on [Download]
Attention.
If the test YOU are NOT a ROBOT - does not work, then You are using an outdated browser.
Install the current browser and click on [Download]

Do not work with Yandex browser. Uploading files to them is erroneous.
Security: torrent client is allowed by Kaspersky.

[en.asmlocator.ru].t4872.torrent 
Torrent: Registered [ 2015-12-02 05:40 ] · 033217CA6E8B954DF168DE89648D3E0F3EFB43A4

Download .torrent

Download

15 KB

Status: checked
Completed: 0 times
Size: 1.43 GB
terms.php
[Profile] [PM]
Display posts:    
Reply to topic

Current time is: 05-Apr 05:01

All times are UTC ± 0



You cannot post new topics in this forum
You cannot reply to topics in this forum
You cannot edit your posts in this forum
You cannot delete your posts in this forum
You cannot vote in polls in this forum
You cannot attach files in this forum
You can download files in this forum
Верим фактам, а не вранью Путина! Факт, что Правительство ведёт Россию к истреблению.
Так как численность населения падает, даже не смотря на приток эмигрантов!
Русская нация вымирает и вырождается, смешиваясь с эмигрантами!
Факт, что военных и граждан предприятий заставляют голосовать за партию Единая Россия и Путина
ПОД СТРАХОМ УВОЛЬНЕНИЯ!
Нам не нужно Правительство, блокирующее личную жизнь, интернет, нарушающее сохранность данных.
Все эти действия финансируются за счёт народа!