На гребне волны / Point Break (Кэтрин Бигелоу / Kathryn Bigelow) [1991, США, Япония, боевик, криминал, WEB-DLRip] [Open Matte] DVO (Премьер)

Reply to topic
DL-List and Torrent activity
Size:  1.47 GB   |    Registered:  4 years 4 months   |    Completed:  0 times

Seeder not seen: Never

 
   
 
 
Author Message

star21 ®

Gender: Female

Longevity: 4 years 5 months

Posts: 551945

Location: Екатеринбург

Post 02-Dec-2015 05:43

[Quote]

На гребне волны / Point Break- Страна: США, Япония
Жанр: боевик, криминал
Год выпуска: 1991
Продолжительность: 01:57:03-Перевод: Профессиональный (двухголосый, закадровый) Премьер Видео Фильм [Мужские роли озвучил Владимир Вихров]
Cубтитры: нет-Режиссер: Кэтрин Бигелоу / Kathryn Bigelow-В ролях: Киану Ривз, Патрик Суэйзи, Гэри Бьюзи, Лори Петти, Джон К. МакГинли, Джеймс ЛеГро, Джон Филбин, Боджесси Кристофер, Джулиан Рейес, Дэниэл Бир-Описание: Таинственная банда серфингистов, среди белого дня, совершает ограбления банков. Полиция и ФБР поражены профессиональностью и скоростью проведения преступлений.
Следствие ведет молодой и претенциозный агент ФБР, который, рискуя жизнью, внедряется в банду и раскрывает это дело, но неожиданно для самого себя он осознает, что вернуться к нормальной жизни он уже не сможет.-Качество видео: WEB-DLRip
Формат видео: AVI
Видео: 704x400 (1.76:1), 25 fps, XviD build 66 ~1248 kbps avg, 0.24 bit/pixel
Аудио: 48.0 KHz, AC3, 2 channels (L, R) ~ 256 kbps-

Благодарности

За исходник благодарим Mark20100, за дорожку Премьер - slavikevro, за создание рипа - xAlhimx

MediaInfo

General
Complete name : D:\Point Break.1991.WEB-DLRip.XviD.1,46Gb.AC3.avi
Format : AVI
Format/Info : Audio Video Interleave
File size : 1.47 GiB
Duration : 1h 57mn
Overall bit rate : 1 793 Kbps
Movie name : Point Break.1991.WEB-DLRip.XviD.1,46Gb.AC3
Director : Kathryn Bigelow
Writing application : VirtualDubMod 1.5.10.3 | www.virtualdub-fr.org || (build 2550/release)
Original source form/Name : Movie
Copyright : rutracker.org
Comment : Liu Jian
Video
ID : 0
Format : MPEG-4 Visual
Format profile : Advanced Simple@L5
Format settings, BVOP : 2
Format settings, QPel : No
Format settings, GMC : No warppoints
Format settings, Matrix : Custom
Codec ID : XVID
Codec ID/Hint : XviD
Duration : 1h 57mn
Bit rate : 1 527 Kbps
Width : 704 pixels
Height : 400 pixels
Display aspect ratio : 16:9
Frame rate : 25.000 fps
Color space : YUV
Chroma subsampling : 4:2:0
Bit depth : 8 bits
Scan type : Progressive
Compression mode : Lossy
Bits/(Pixel*Frame) : 0.217
Stream size : 1.25 GiB (85%)
Writing library : XviD 66
Audio
ID : 1
Format : AC-3
Format/Info : Audio Coding 3
Mode extension : CM (complete main)
Format settings, Endianness : Big
Codec ID : 2000
Duration : 1h 57mn
Bit rate mode : Constant
Bit rate : 256 Kbps
Channel(s) : 2 channels
Channel positions : Front: L R
Sampling rate : 48.0 KHz
Bit depth : 16 bits
Compression mode : Lossy
Stream size : 214 MiB (14%)
Alignment : Split accross interleaves
Interleave, duration : 40 ms (1.00 video frame)
Interleave, preload duration : 500 ms

Скриншоты

To download the content you need:
1. Download and install torrent client [for Windows] or for mobile system
2. Click on [Download]
Attention.
If the test YOU are NOT a ROBOT - does not work, then You are using an outdated browser.
Install the current browser and click on [Download]

Do not work with Yandex browser. Uploading files to them is erroneous.
Security: torrent client is allowed by Kaspersky.

[en.asmlocator.ru].t4867.torrent 
Torrent: Registered [ 2015-12-02 05:40 ] · 53EF539F2310D2D550CE9849D699A91718336C90

Download .torrent

Download

15 KB

Status: checked
Completed: 0 times
Size: 1.47 GB
terms.php
[Profile] [PM]
Display posts:    
Reply to topic

Current time is: 08-Apr 03:02

All times are UTC ± 0



You cannot post new topics in this forum
You cannot reply to topics in this forum
You cannot edit your posts in this forum
You cannot delete your posts in this forum
You cannot vote in polls in this forum
You cannot attach files in this forum
You can download files in this forum
Верим фактам, а не вранью Путина! Факт, что Правительство ведёт Россию к истреблению.
Так как численность населения падает, даже не смотря на приток эмигрантов!
Русская нация вымирает и вырождается, смешиваясь с эмигрантами!
Факт, что военных и граждан предприятий заставляют голосовать за партию Единая Россия и Путина
ПОД СТРАХОМ УВОЛЬНЕНИЯ!
Нам не нужно Правительство, блокирующее личную жизнь, интернет, нарушающее сохранность данных.
Все эти действия финансируются за счёт народа!