Американские Тигры / Команда Тигров / American Tigers / Army of Convicts (Дэвид Уорт / David Worth) [1996, США, боевик, военный, DVDRip] AVO (Сергей Кузнецов) + Original Eng

Reply to topic
DL-List and Torrent activity
Size:  1.45 GB   |    Registered:  4 years 4 months   |    Completed:  0 times

Seeder not seen: Never

 
   
 
 
Author Message

star21 ®

Gender: Female

Longevity: 4 years 4 months

Posts: 551945

Location: Екатеринбург

Post 02-Dec-2015 05:43

[Quote]

Американские Тигры / Команда Тигров / American Tigers / Army of Convicts
Страна: США
Жанр: боевик, военный
Год выпуска: 1996
Продолжительность: 01:33:21
-
Перевод: Авторский (одноголосый закадровый) Сергей Кузнецов + (одна 7-минутная вставка DVO РТР)
Cубтитры: нет
Оригинальная аудиодорожка: английский
-
Режиссер: Дэвид Уорт / David Worth
В ролях: Сэм Дж. Джонс (Sergeant Major Ransom), Джо Де Анджелис (Navy Seal), Рорион Грейси, Клейтон Дж. Барбер (Cody), Тодд Кёртис (Riley Hooker), Джо Эстевес (General Clay), Брайан Форрест (Sgt. Brooks), Тони Халме (Dettman), Кэрол Хойт (Jessie Ransom), Дональд Гибб (Dan Storm), Синтия Ротрок (играет саму себя)
-
Описание: Международные террористы готовят военный переворот в США. Чтобы предотвратить неминуемое кровопролитие, руководители спецслужб поручают сержанту Рэнсому создать отряд особого назначения «Американские тигры» из числа заключенных для ликвидации бунтовщиков.
-
Доп. информация:
-
Сэмпл: http://sendfile.su/1152374
-
Качество видео: DVDRip (DVD9/Lucian666)
Формат видео: AVI
Видео: 640x480 (1.33:1), 25 fps, XviD build 65 ~1640 kbps avg, 0.21 bit/pixel
Аудио 1: 48 kHz, AC3 Dolby Digital, 2/0 (L,R) ch, ~192 kbps RUS (AVO + DVO)
Аудио 2: 48 kHz, AC3 Dolby Digital, 3/2 (L,C,R,l,r) + LFE ch, ~384 kbps ENG

MediaInfo

General
Complete name : C:\Users\ALEX\Downloads\Фильмы\American Tigers.Army of Convicts.1996.RUS.ENG.DVDRip.XviD.AC3.avi
Format : AVI
Format/Info : Audio Video Interleave
File size : 1.45 GiB
Duration : 1h 33mn
Overall bit rate : 2 231 Kbps
Writing application : VirtualDubMod 1.5.10.2 (build 2542/release)
Writing library : VirtualDubMod build 2542/release
Video
ID : 0
Format : MPEG-4 Visual
Format profile : Advanced Simple@L5
Format settings, BVOP : 1
Format settings, QPel : No
Format settings, GMC : No warppoints
Format settings, Matrix : Custom
Codec ID : XVID
Codec ID/Hint : XviD
Duration : 1h 33mn
Bit rate : 1 641 Kbps
Width : 640 pixels
Height : 480 pixels
Display aspect ratio : 4:3
Frame rate : 25.000 fps
Color space : YUV
Chroma subsampling : 4:2:0
Bit depth : 8 bits
Scan type : Progressive
Compression mode : Lossy
Bits/(Pixel*Frame) : 0.214
Stream size : 1.07 GiB (74%)
Writing library : XviD 65
Audio #1
ID : 1
Format : AC-3
Format/Info : Audio Coding 3
Mode extension : CM (complete main)
Format settings, Endianness : Big
Codec ID : 2000
Duration : 1h 33mn
Bit rate mode : Constant
Bit rate : 192 Kbps
Channel(s) : 2 channels
Channel positions : Front: L R
Sampling rate : 48.0 KHz
Bit depth : 16 bits
Compression mode : Lossy
Stream size : 128 MiB (9%)
Alignment : Split accross interleaves
Interleave, duration : 40 ms (1.00 video frame)
Interleave, preload duration : 500 ms
Audio #2
ID : 2
Format : AC-3
Format/Info : Audio Coding 3
Mode extension : CM (complete main)
Format settings, Endianness : Big
Codec ID : 2000
Duration : 1h 33mn
Bit rate mode : Constant
Bit rate : 384 Kbps
Channel(s) : 6 channels
Channel positions : Front: L C R, Side: L R, LFE
Sampling rate : 48.0 KHz
Bit depth : 16 bits
Compression mode : Lossy
Stream size : 256 MiB (17%)
Alignment : Split accross interleaves
Interleave, duration : 40 ms (1.00 video frame)
Interleave, preload duration : 500 ms

Скриншоты

To download the content you need:
1. Download and install torrent client [for Windows] or for mobile system
2. Click on [Download]
Attention.
If the test YOU are NOT a ROBOT - does not work, then You are using an outdated browser.
Install the current browser and click on [Download]

Do not work with Yandex browser. Uploading files to them is erroneous.
Security: torrent client is allowed by Kaspersky.

[en.asmlocator.ru].t4865.torrent 
Torrent: Registered [ 2015-12-02 05:40 ] · CA3EEB0F2B53DFA8C25BBD28BA34C39AB5FDB98B

Download .torrent

Download

15 KB

Status: checked
Completed: 0 times
Size: 1.45 GB
terms.php
[Profile] [PM]
Display posts:    
Reply to topic

Current time is: 04-Apr 14:32

All times are UTC ± 0



You cannot post new topics in this forum
You cannot reply to topics in this forum
You cannot edit your posts in this forum
You cannot delete your posts in this forum
You cannot vote in polls in this forum
You cannot attach files in this forum
You can download files in this forum
Верим фактам, а не вранью Путина! Факт, что Правительство ведёт Россию к истреблению.
Так как численность населения падает, даже не смотря на приток эмигрантов!
Русская нация вымирает и вырождается, смешиваясь с эмигрантами!
Факт, что военных и граждан предприятий заставляют голосовать за партию Единая Россия и Путина
ПОД СТРАХОМ УВОЛЬНЕНИЯ!
Нам не нужно Правительство, блокирующее личную жизнь, интернет, нарушающее сохранность данных.
Все эти действия финансируются за счёт народа!